<?xml version="1.0" standalone="no"?>
<!DOCTYPE svg PUBLIC "-//W3C//DTD SVG 1.1//EN" "http://www.w3.org/Graphics/SVG/1.1/DTD/svg11.dtd" >
<svg xmlns="http://www.w3.org/2000/svg" xmlns:xlink="http://www.w3.org/1999/xlink" version="1.1">
<metadata></metadata>
<defs>
<font id="webfontuploaded_file" horiz-adv-x="587" >
<font-face units-per-em="2048" ascent="1638" descent="-410" />
<missing-glyph horiz-adv-x="477" />
<glyph unicode="&#xfb01;" horiz-adv-x="1148" d="M66 0v20q31 0 55 3.5t42.5 15.5t29 34.5t10.5 63.5v680h-131v31h131v131q0 193 92 308.5t276 115.5q82 0 145.5 -15.5t98.5 -56.5q27 -31 27 -67q0 -25 -17.5 -44.5t-46.5 -19.5q-23 0 -41 14.5t-28 38.5q-10 29 -9.5 41.5t-1.5 16.5q-14 29 -45.5 45t-91.5 16 q-66 0 -102.5 -32.5t-55 -90t-23.5 -132.5t-5 -156v-113h264q78 0 156.5 11t154.5 38v-760q0 -41 10.5 -63.5t29 -34.5t43 -15.5t54.5 -3.5v-20q-49 0 -79.5 1t-53 2t-43 2t-47.5 1q-29 0 -48 -1t-41.5 -2t-53.5 -2t-80 -1v20q31 0 55.5 3.5t43 15.5t28.5 34.5t10 63.5v557 q0 33 -5 60.5t-32 46.5q-16 10 -39.5 13t-46.5 3h-280v-680q0 -41 10 -63.5t28.5 -34.5t43 -15.5t55.5 -3.5v-20q-49 0 -80 1t-53.5 2t-43 2t-46.5 1q-29 0 -48.5 -1t-42 -2t-53 -2t-79.5 -1z" />
<glyph unicode="&#xfb02;" horiz-adv-x="1142" d="M66 0v20q31 0 55 3.5t42.5 15.5t29 34.5t10.5 63.5v680h-131v31h131v131q2 199 97 312.5t292 113.5q39 0 80 -8t82 -27q47 4 92 11.5t104 15.5v-1260q0 -41 10.5 -63.5t29 -34.5t43 -15.5t54.5 -3.5v-20q-49 0 -79.5 1t-53 2t-43 2t-47.5 1q-29 0 -48 -1t-41.5 -2 t-53.5 -2t-80 -1v20q31 0 55.5 3.5t43 15.5t28.5 34.5t10 63.5v1014q0 111 -41 166t-143 55q-82 0 -127 -32.5t-65.5 -86t-23.5 -122t-3 -140.5v-143h211v-31h-211v-680q0 -41 10 -63.5t28.5 -34.5t43 -15.5t55.5 -3.5v-20q-49 0 -80 1t-53.5 2t-43 2t-46.5 1 q-29 0 -48.5 -1t-42 -2t-53 -2t-79.5 -1z" />
<glyph unicode="&#xfb03;" horiz-adv-x="1716" d="M66 0v20q31 0 55 3.5t42.5 15.5t29 34.5t10.5 63.5v680h-131v31h131v125q0 96 23.5 175t73.5 136t130 88t193 31q55 0 96 -9.5t72.5 -22.5t55 -30.5t42.5 -31.5q96 94 256 94q82 0 145.5 -15.5t98.5 -56.5q27 -31 26 -67q0 -25 -17.5 -44.5t-45.5 -19.5q-23 0 -41.5 14.5 t-28.5 38.5q-10 29 -9 41.5t-1 16.5q-14 29 -46 45t-91 16q-66 0 -103 -32.5t-55.5 -90t-23.5 -132.5t-5 -156v-113h264q78 0 157 11t155 38v-760q0 -41 10 -63.5t28.5 -34.5t43 -15.5t55.5 -3.5v-20q-49 0 -80 1t-53.5 2t-43 2t-46.5 1q-29 0 -48.5 -1t-42 -2t-53 -2 t-80.5 -1v20q31 0 55.5 3.5t43 15.5t29 34.5t10.5 63.5v557q0 74 -27 98.5t-96 24.5h-281v-680q0 -41 10.5 -63.5t29 -34.5t43 -15.5t54.5 -3.5v-20q-49 0 -79.5 1t-53 2t-43 2t-47.5 1q-29 0 -48 -1t-41.5 -2t-53.5 -2t-80 -1v20q31 0 55.5 3.5t43 15.5t28.5 34.5t10 63.5 v680h-401v-680q0 -41 10 -63.5t28.5 -34.5t43 -15.5t55.5 -3.5v-20q-49 0 -80 1t-53.5 2t-43 2t-46.5 1q-29 0 -48.5 -1t-42 -2t-53 -2t-79.5 -1zM375 848h401v131q0 141 51 244q-16 14 -30.5 35.5t-24.5 50.5q-4 14 -42 37.5t-116 23.5q-86 0 -134 -38t-71.5 -98 t-28.5 -134t-5 -146v-106z" />
<glyph unicode="&#xfb04;" horiz-adv-x="1722" d="M66 0v20q31 0 55 3.5t42.5 15.5t29 34.5t10.5 63.5v680h-131v31h131v125q0 96 23.5 175t73.5 136t130 88t193 31q55 0 96 -9.5t72.5 -22.5t55 -30.5t42.5 -31.5q53 53 127 74.5t149 21.5q39 0 80 -8t82 -27q47 4 92 10t105 17v-1260q0 -41 10 -63.5t28.5 -34.5t43 -15.5 t55.5 -3.5v-20q-49 0 -80 1t-53.5 2t-43 2t-46.5 1q-29 0 -48.5 -1t-42 -2t-53 -2t-80.5 -1v20q31 0 55.5 3.5t43 15.5t29 34.5t10.5 63.5v1014q0 111 -41 166t-144 55q-82 0 -127 -32.5t-65.5 -86t-23.5 -122t-3 -140.5v-143h211v-31h-211v-680q0 -41 10.5 -63.5t29 -34.5 t43 -15.5t54.5 -3.5v-20q-49 0 -79.5 1t-53 2t-43 2t-47.5 1q-29 0 -48 -1t-41.5 -2t-53.5 -2t-80 -1v20q31 0 55.5 3.5t43 15.5t28.5 34.5t10 63.5v680h-401v-680q0 -41 10 -63.5t28.5 -34.5t43 -15.5t55.5 -3.5v-20q-49 0 -80 1t-53.5 2t-43 2t-46.5 1q-29 0 -48.5 -1 t-42 -2t-53 -2t-79.5 -1zM375 848h401v131q0 141 51 244q-16 14 -30.5 35.5t-24.5 50.5q-4 14 -42 37.5t-116 23.5q-86 0 -134 -38t-71.5 -98t-28.5 -134t-5 -146v-106z" />
<glyph horiz-adv-x="0" />
<glyph horiz-adv-x="0" />
<glyph unicode="&#xd;" horiz-adv-x="477" />
<glyph unicode=" "  horiz-adv-x="477" />
<glyph unicode="&#x09;" horiz-adv-x="477" />
<glyph unicode="&#xa0;" horiz-adv-x="477" />
<glyph unicode="!" horiz-adv-x="647" d="M205 98q0 49 34.5 84t84.5 35q49 0 83.5 -35t34.5 -84t-34.5 -83.5t-83.5 -34.5t-84 34.5t-35 83.5zM215 1251q0 80 33 117t76 37t75.5 -37t32.5 -117q0 -35 -7 -83t-24 -130l-6 -34q-20 -104 -39.5 -248t-19.5 -361v-63h-25v63q0 217 -19.5 360.5t-39.5 248.5l-6 34 q-16 82 -23.5 130.5t-7.5 82.5z" />
<glyph unicode="&#x22;" horiz-adv-x="727" d="M92 1370h197l-72 -549h-53zM436 1370h199l-74 -549h-53z" />
<glyph unicode="#" horiz-adv-x="1091" d="M35 510l8 35h229l68 282h-231l8 35h231l90 389h123l-90 -389h231l91 389h122l-90 -389h232l-8 -35h-232l-65 -282h231l-8 -35h-232l-90 -389h-123l91 389h-234l-90 -389h-123l90 389h-229zM395 545h234l65 282h-231z" />
<glyph unicode="$" horiz-adv-x="1138" d="M184 180q0 51 28 73.5t56 22.5q31 0 53.5 -24.5t22.5 -56.5q0 -29 -11 -51.5t-11 -28.5q0 -31 19 -51.5t49 -33t66 -17.5t66 -5h31v621l-41 20q-59 29 -113.5 64t-95.5 80t-66.5 104t-25.5 139q0 70 26.5 132.5t72.5 111.5t108.5 79t134.5 36v157h39v-155 q45 0 100.5 -9.5t103.5 -33t79.5 -62.5t31.5 -98q0 -49 -26.5 -71.5t-55.5 -22.5q-31 0 -53 23.5t-22 56.5q0 29 11 50t11 30q0 29 -15.5 49t-40 32.5t-57 18.5t-67.5 6v-535q23 -14 49.5 -27t48.5 -26q66 -39 115 -80t83 -88t50 -104t16 -127q0 -76 -24.5 -144.5 t-71.5 -122t-114.5 -89t-151.5 -43.5v-281h-39v276h-27q-43 0 -102 9.5t-112.5 33t-90.5 62.5t-37 100zM354 1108q0 -47 16.5 -85t44 -67.5t63.5 -54t75 -47.5v510q-47 -6 -83 -29.5t-62.5 -58.5t-40 -78t-13.5 -90zM592 16q49 8 88 33t67.5 61.5t44 84t15.5 98.5 q0 61 -17.5 108.5t-47 85t-68.5 67.5t-82 54v-592z" />
<glyph unicode="%" horiz-adv-x="1746" d="M143 907q0 86 29 172t80 157t124 115t163 44q61 0 102 -17.5t88 -50.5q47 -31 96 -53.5t115 -22.5q53 0 107.5 17.5t103.5 46t92 65.5t76 74h67l-948 -1597h-78l869 1466q-66 -57 -145.5 -85t-137.5 -28q-45 0 -87 8.5t-87 30.5q20 -45 26.5 -92t6.5 -76 q0 -102 -27.5 -192t-77 -157.5t-115 -106.5t-141.5 -39q-53 0 -107 19.5t-97 59.5t-70 100t-27 142zM299 852q0 -111 43 -167t102 -56q68 0 124.5 44t96.5 112.5t62.5 152.5t22.5 166q0 117 -49.5 178t-108.5 61q-66 0 -119 -47t-92 -119.5t-60.5 -158.5t-21.5 -166z M938 236q0 86 28.5 172t81 156.5t128.5 114.5t170 44q68 0 116.5 -24.5t79.5 -66.5t46.5 -97.5t15.5 -118.5q0 -100 -29 -191.5t-78 -160t-115.5 -109.5t-142.5 -41q-53 0 -107.5 19.5t-97.5 59.5t-69.5 100.5t-26.5 142.5zM1094 180q0 -111 43 -167t102 -56q68 0 124 44 t97 112.5t63.5 152.5t22.5 166q0 57 -14 102.5t-36.5 76t-51.5 47t-58 16.5q-66 0 -119 -47t-91.5 -120t-60 -160t-21.5 -167z" />
<glyph unicode="&#x26;" horiz-adv-x="1495" d="M84 238q0 80 40 148.5t95 121.5t112.5 89t92.5 54q-6 10 -30.5 47t-50.5 92.5t-46.5 122t-20.5 138.5q0 86 27 152.5t72 111.5t101 68.5t118 23.5q125 0 206 -75t81 -199q0 -63 -23.5 -119t-63.5 -105t-91.5 -91t-108.5 -79q74 -106 150.5 -198t160.5 -179q53 78 94 161 t83 151.5t91.5 112.5t118.5 44q51 0 88 -31.5t37 -84.5q0 -37 -22.5 -59.5t-57.5 -22.5t-54 17.5t-31.5 37t-19.5 36.5t-15 17q-23 0 -41.5 -10t-37 -33.5t-41 -60.5t-50.5 -90q-23 -41 -51.5 -95.5t-65.5 -115.5q31 -35 75 -81t93 -88t100 -71.5t98 -29.5q57 0 89 22.5 t55 56.5l14 -12q-10 -18 -29.5 -44t-52.5 -50.5t-78 -41.5t-106 -17q-117 0 -207 55t-180 149q-37 -41 -81 -79.5t-95.5 -67.5t-108.5 -46.5t-125 -17.5q-72 0 -129 21.5t-97 57.5t-60.5 84t-20.5 102zM262 332q0 -49 17.5 -97.5t48 -85t73.5 -60t95 -23.5q43 0 85 13 t78.5 32.5t67.5 45t51 50.5q-121 125 -206 237.5t-132 180.5q-23 -14 -53.5 -37t-58 -57.5t-47 -83t-19.5 -115.5zM399 1165q0 -57 22.5 -119.5t51.5 -119t58.5 -99.5t43.5 -63q63 45 98.5 99.5t51.5 104.5t19.5 90t3.5 56q0 129 -48.5 196.5t-126.5 67.5q-31 0 -62.5 -14 t-56 -42t-40 -68t-15.5 -89z" />
<glyph unicode="'" horiz-adv-x="382" d="M92 1370h199l-70 -549h-59z" />
<glyph unicode="(" horiz-adv-x="800" d="M205 485q0 104 25.5 219t77.5 232t133 233.5t194 227.5l22 -23q-90 -106 -147 -214.5t-90 -219.5t-44 -224.5t-11 -230.5t11 -231.5t44 -225t90 -219t147 -215.5l-22 -22q-225 223 -327.5 461.5t-102.5 451.5z" />
<glyph unicode=")" horiz-adv-x="800" d="M143 -406q90 106 147.5 215t89.5 219.5t44 225.5t12 231q0 117 -12 230.5t-44 224.5t-89.5 219.5t-147.5 214.5l23 23q113 -111 193.5 -227.5t133 -233.5t78 -231.5t25.5 -219.5q0 -213 -102.5 -451.5t-327.5 -461.5z" />
<glyph unicode="*" horiz-adv-x="1050" d="M143 811q0 47 50 76q20 12 45.5 16t53 6t56.5 7.5t55 19.5q51 29 61.5 37t10.5 16t-10 16.5t-62 36.5q-27 14 -55.5 19.5t-56 7.5t-53 6t-45.5 17q-25 14 -37.5 33.5t-12.5 41.5q0 35 26 57.5t54 22.5q16 0 27.5 -4t25.5 -12q23 -14 38.5 -33.5t28.5 -42t29.5 -44 t43.5 -38.5q29 -18 49 -29.5t27 -11.5q12 0 15 12.5t3 32.5v47q0 29 -10.5 54.5t-21.5 49t-21.5 48t-10.5 51.5q0 45 23 69.5t57 24.5q33 0 56.5 -24.5t23.5 -69.5q0 -27 -10 -51.5t-21.5 -48t-21.5 -49t-10 -54.5v-65q0 -27 18 -27q8 0 23.5 8.5t50.5 30.5q27 18 44 41 t30.5 44.5t29 41t37.5 33.5q29 16 53 16q33 0 55.5 -23.5t22.5 -54.5q0 -23 -11 -42t-36 -35q-25 -12 -50.5 -16.5t-52 -6.5t-54 -7t-54.5 -20q-27 -14 -41 -23t-21 -14.5t-8 -9.5t-1 -6q0 -4 9 -15t62 -38q27 -16 53.5 -20.5t54 -6.5t53.5 -6t50 -16q25 -16 36 -36t11 -42 q0 -31 -22.5 -54.5t-55.5 -23.5q-25 0 -53 17q-23 14 -38 33.5t-28.5 41t-30.5 44t-44 40.5q-35 23 -50.5 31t-23.5 8q-18 0 -18 -26v-66q0 -29 10 -54.5t21.5 -49t21.5 -48t10 -51.5q0 -45 -23.5 -69.5t-56.5 -24.5q-35 0 -57.5 24.5t-22.5 69.5q0 27 10.5 51.5t21.5 48 t21.5 49t10.5 54.5v47q0 20 -3 32.5t-15 12.5q-6 0 -27 -11t-49 -30q-27 -16 -43.5 -37.5t-29.5 -44t-28.5 -42t-38.5 -33.5q-14 -8 -25 -12.5t-28 -4.5q-29 0 -54.5 22.5t-25.5 57.5z" />
<glyph unicode="+" horiz-adv-x="1163" d="M123 678v78h418v393h80v-393h419v-78h-419v-393h-80v393h-418z" />
<glyph unicode="," horiz-adv-x="546" d="M143 82q0 53 34 85t77 32q27 0 53.5 -11.5t48 -34t34.5 -56.5t13 -81q0 -98 -61 -176t-152 -131l-14 19q47 33 75 66.5t43 65t20 59.5t5 50q0 4 -1 11.5t-1 13.5v12q-23 -16 -38 -21t-29 -5q-43 0 -75 27.5t-32 74.5z" />
<glyph unicode="-" d="M82 483v101h424v-101h-424z" />
<glyph unicode="." horiz-adv-x="524" d="M143 98q0 49 35 84t84 35t84 -35t35 -84t-35 -83.5t-84 -34.5t-84 34.5t-35 83.5z" />
<glyph unicode="/" horiz-adv-x="1417" d="M61 -428l1164 1798h69l-1169 -1798h-64z" />
<glyph unicode="0" horiz-adv-x="1052" d="M82 684q0 141 31.5 269t90 226.5t140.5 157t184 58.5q98 0 179 -58.5t139.5 -157t91.5 -226.5t33 -269q0 -119 -28 -244t-83 -228t-138 -170t-194 -67q-113 0 -196.5 67t-139 170t-83 228t-27.5 244zM281 655q0 -51 2 -119.5t9 -141t22.5 -142.5t43 -125t68.5 -89 t102 -34q59 0 101.5 33t70 87t42 121.5t21.5 139.5t8 140.5t1 121.5v37q0 55 -1 128t-8 148.5t-21.5 148.5t-42 130t-70 92t-101.5 35t-101 -35t-69.5 -92t-43 -130t-22.5 -148.5t-9 -148.5t-2 -128v-29z" />
<glyph unicode="1" horiz-adv-x="747" d="M70 1274v20q68 4 118 11.5t109 23.5q70 18 113 32.5t92 33.5v-1194q0 -104 40 -141t140 -37v-23q-51 0 -87 1t-65.5 3t-58.5 3t-61 1q-37 0 -67 -1t-62.5 -3t-73.5 -3t-98 -1v23q51 0 90 6t65.5 26.5t39.5 55t13 94.5v889q0 57 -10 95t-45 62q-23 16 -53.5 20.5 t-63.5 4.5q-20 0 -45.5 -1t-29.5 -1z" />
<glyph unicode="2" horiz-adv-x="1009" d="M70 0q27 55 56.5 100t63.5 90q72 94 162 184.5t170 183.5t137.5 194.5t65.5 220.5q2 12 2 24.5v24.5q0 164 -70.5 253t-181.5 89q-63 0 -111.5 -23.5t-80 -60.5t-48 -80t-16.5 -82q0 -96 48 -158.5t126 -62.5q43 0 71 17.5t52 46.5q0 -37 -17.5 -67t-45 -50.5 t-61.5 -31.5t-66 -11q-57 0 -102.5 21.5t-77 57t-48 78.5t-16.5 86q0 88 36 154t93 110t127.5 66.5t138.5 22.5q94 0 177 -24.5t144.5 -76t97.5 -127t36 -176.5q0 -102 -50.5 -184t-127 -152.5t-167.5 -137t-173 -138.5q-53 -47 -103.5 -101.5t-81.5 -103.5h678 q-6 -37 -14 -59.5t-14 -57.5q-4 -20 -6.5 -35.5t-4.5 -34t-6 -43t-12 -63.5h-23q2 10 3 22.5t1 26.5q0 27 -7 47.5t-42 20.5h-712z" />
<glyph unicode="3" horiz-adv-x="989" d="M66 150q0 29 18 54t53 25q29 0 53.5 -20.5t34.5 -56.5q4 -16 5 -28.5t1 -23.5v-12q10 -39 60.5 -62.5t116.5 -23.5q61 0 116.5 22.5t97.5 70.5t65.5 121t23.5 173q0 68 -9.5 130.5t-32 110.5t-58.5 76.5t-87 28.5q-29 0 -54.5 -8t-43.5 -20q-37 -23 -64.5 -56t-52.5 -57 q-16 -16 -39 -16q-16 0 -27.5 9t-11.5 27q0 23 23 37l29 17q57 33 118.5 69.5t112.5 88t84 120t33 162.5q0 51 -14.5 98t-40 81t-62.5 54.5t-82 20.5q-47 0 -84 -16.5t-64.5 -44t-42 -63.5t-14.5 -75q0 -57 34 -106t101 -49q29 0 56.5 9t50.5 23q-27 -59 -72 -95t-110 -36 q-80 0 -133.5 53.5t-53.5 137.5q0 49 22.5 101t68 95t113 71t157.5 28q61 0 125.5 -13.5t116 -45t84 -83t32.5 -125.5q0 -70 -28.5 -124t-75.5 -98t-105.5 -78.5t-115.5 -61.5q4 0 18 1t25 1q70 0 136 -19.5t119.5 -61.5t86 -104.5t32.5 -148.5q0 -94 -42 -179 t-113.5 -148.5t-165.5 -101.5t-199 -38q-37 0 -80 5t-86 17.5t-79.5 35t-59.5 59.5q-20 35 -20 66z" />
<glyph unicode="4" horiz-adv-x="1060" d="M61 463v39l668 893h35v-891h231v-41h-231v-262q0 -37 4 -76t33 -68q27 -27 72 -30.5t73 -3.5v-23q-51 0 -87 1t-65.5 3t-57 3t-60.5 1q-37 0 -69 -1t-65.5 -3t-72.5 -3t-90 -1v23q43 0 92 6t84 41q23 23 28 59.5t5 75.5v258h-527zM109 504h479v639z" />
<glyph unicode="5" horiz-adv-x="995" d="M70 147q0 31 18 55.5t53 24.5q29 0 54.5 -20.5t33.5 -56.5q4 -23 4 -41.5t3 -22.5q12 -39 62 -61.5t105 -22.5q86 0 146.5 41t97.5 104.5t54.5 139t17.5 143.5q0 72 -13.5 142.5t-42 126t-73.5 90t-107 34.5q-78 0 -136 -31.5t-111 -103.5q4 -27 7 -43t5 -43 q0 -25 -9.5 -40t-27.5 -15q-39 0 -39 43v8q0 16 1 26.5t2 19.5t2 21.5t3 34.5l43 693q66 -55 133.5 -85t157.5 -30q115 0 192.5 46t110.5 103q-12 -66 -40.5 -124t-76 -101t-112 -68.5t-146.5 -25.5q-51 0 -100 9t-98 22l-25 -408q63 66 138 100.5t161 34.5q94 0 169 -29.5 t126 -79.5t78 -119t27 -146q0 -104 -41 -199.5t-113 -167.5t-169 -115t-210 -43q-37 0 -80 5t-84 17.5t-75.5 35t-55.5 57.5q-20 35 -20 65z" />
<glyph unicode="6" horiz-adv-x="1052" d="M86 674q0 72 12.5 152.5t39 161.5t68.5 155t99 131t132 91t167 34q70 0 136.5 -18.5t107.5 -65.5q29 -35 29 -74q0 -29 -19.5 -53.5t-52.5 -24.5q-27 0 -52.5 17.5t-37.5 52.5q-8 20 -9 41.5t-4 25.5q-32 64 -124 64q-104 0 -165 -69.5t-89 -176.5q-27 -98 -33 -198.5 t-8 -206.5q51 72 128.5 121t174.5 49q86 0 156.5 -33t123 -88t81 -129t28.5 -156q0 -123 -36 -216t-95.5 -157.5t-136 -97.5t-158.5 -33q-154 0 -246 65.5t-140 167t-62.5 226.5t-14.5 242zM285 473q0 -135 22.5 -224t60.5 -143.5t86 -76t97 -21.5q121 0 175 120t54 329 q0 68 -11 135t-36.5 121.5t-70 89.5t-111.5 35q-43 0 -83 -16.5t-75 -44t-62.5 -61.5t-45.5 -69v-174z" />
<glyph unicode="7" horiz-adv-x="989" d="M70 967q12 57 21 97t17.5 71.5t15.5 60.5t15 68q6 31 9.5 53t6.5 47t8 58.5t15 84.5h23q-6 -29 -6 -57q0 -33 13 -56.5t48 -23.5h674v-41q-86 -154 -152.5 -315.5t-124.5 -327.5q-31 -90 -54.5 -168t-41.5 -148.5t-33.5 -137t-31.5 -134.5q-16 -66 -49 -97.5t-76 -31.5 q-35 0 -60.5 25.5t-25.5 73.5q0 33 16 77q53 141 125 287t145.5 283t141 260t112.5 219h-471q-72 0 -114.5 -11.5t-68.5 -36t-41 -64.5t-28 -97l-4 -18h-24z" />
<glyph unicode="8" horiz-adv-x="1056" d="M86 324q0 61 27.5 117.5t70.5 103.5t94.5 85t98.5 64q-117 57 -184.5 146.5t-67.5 210.5q0 68 32.5 131t89 111t131.5 77t161 29q61 0 127.5 -20.5t122 -59.5t90 -96.5t34.5 -130.5q0 -100 -57 -187.5t-162 -142.5q133 -66 205 -159t72 -224q0 -78 -30 -150.5t-86 -129 t-139 -91.5t-188 -35q-78 0 -156.5 19.5t-142 60.5t-103.5 107.5t-40 163.5zM231 344q0 -84 26 -147.5t69 -105.5t98 -62.5t115 -20.5q63 0 116.5 25.5t93 67.5t62.5 94.5t23 105.5q0 72 -35 124t-87.5 91t-113.5 68.5t-115 58.5l-73 33q-92 -49 -135.5 -138t-43.5 -194z M260 1124q0 -74 38 -126t96.5 -92t129 -69.5t138.5 -60.5q66 55 91 128t25 145q0 80 -21.5 140t-56 99t-81 58.5t-97.5 19.5q-49 0 -96 -14.5t-84 -45t-59.5 -75.5t-22.5 -107z" />
<glyph unicode="9" horiz-adv-x="1052" d="M78 895q0 123 36 216t95 157.5t136 97.5t159 33q152 0 243 -65.5t140 -167t64.5 -226.5t15.5 -242q0 -72 -12.5 -152.5t-39 -161.5t-68.5 -154.5t-99.5 -131t-132 -91.5t-166.5 -34q-70 0 -136.5 18.5t-107.5 65.5q-29 35 -29 74q0 29 19.5 53.5t52.5 24.5 q27 0 52.5 -17.5t37.5 -52.5q8 -20 9 -41.5t3 -25.5q31 -64 125 -64q104 0 164.5 69.5t89.5 176.5q27 98 33 198.5t8 206.5q-51 -72 -129 -121t-174 -49q-86 0 -156.5 33t-123 88.5t-81 129t-28.5 155.5zM272 915q0 -68 11.5 -135t37 -121.5t69.5 -89t112 -34.5q43 0 83 16 t74.5 44t62.5 61.5t46 68.5v174q0 135 -22.5 224t-60.5 143.5t-86 76t-97 21.5q-121 0 -175.5 -120t-54.5 -329z" />
<glyph unicode=":" horiz-adv-x="524" d="M143 98q0 57 39 88t80 31q47 0 83 -36t36 -83q0 -41 -31 -79.5t-88 -38.5q-51 0 -85 33.5t-34 84.5zM143 797q0 59 39 88.5t80 29.5q47 0 83 -35.5t36 -82.5t-36 -83t-83 -36q-41 0 -80 29.5t-39 89.5z" />
<glyph unicode=";" horiz-adv-x="546" d="M143 82q0 53 34 85t77 32q27 0 53.5 -11.5t48 -34t34.5 -56.5t13 -81q0 -98 -61 -176t-152 -131l-14 19q47 33 75 66.5t43 65t20 59.5t5 50q0 4 -1 11.5t-1 13.5v12q-23 -16 -38 -21t-29 -5q-43 0 -75 27.5t-32 74.5zM152 793q0 41 30.5 79.5t87.5 38.5t88 -38.5 t31 -79.5q0 -47 -36 -83t-83 -36t-82.5 35.5t-35.5 83.5z" />
<glyph unicode="&#x3c;" horiz-adv-x="1157" d="M113 666v98l921 467v-88l-835 -428l835 -428v-88z" />
<glyph unicode="=" horiz-adv-x="1212" d="M123 561v74h967v-74h-967zM123 799v73h967v-73h-967z" />
<glyph unicode="&#x3e;" horiz-adv-x="1157" d="M123 199v88l835 428l-835 428v88l921 -467v-98z" />
<glyph unicode="?" horiz-adv-x="811" d="M92 1313q0 27 17.5 52.5t62.5 37.5q16 4 31.5 6t32.5 2q70 0 140.5 -35t123.5 -80q82 -70 135 -175t53 -218q0 -121 -53 -200.5t-141 -116.5q-78 -33 -172 -33h-25.5t-26.5 2v-213h-34v391h75q57 0 115.5 7.5t106 31t77 68.5t29.5 123q0 53 -23.5 112.5t-63.5 108.5 t-94.5 81.5t-113.5 32.5q-20 0 -35 -6q-4 -2 -15 -12t-28.5 -21.5t-40 -20.5t-47.5 -9q-45 0 -72 35q-14 20 -14 49zM137 98q0 49 35 84t84 35t84 -35t35 -84t-35 -83.5t-84 -34.5t-84 34.5t-35 83.5z" />
<glyph unicode="@" horiz-adv-x="1992" d="M123 625q0 201 82 367.5t217 287.5t312 188.5t368 67.5q182 0 324.5 -54.5t240.5 -147.5t150.5 -220t52.5 -270q0 -147 -44 -268t-112.5 -207t-153.5 -133.5t-167 -47.5q-98 0 -161 64.5t-65 165.5q-43 -98 -119.5 -164t-185.5 -66q-57 0 -104 26t-81 71t-53.5 107.5 t-19.5 137.5q0 88 36 187.5t99.5 183.5t150.5 139.5t191 55.5q51 0 88 -19.5t61.5 -49.5t38 -65.5t17.5 -68.5l51 184h158l-152 -524q-14 -47 -22 -81t-12 -56.5t-5 -38t-1 -25.5q0 -49 31.5 -80.5t78.5 -31.5q82 0 160 52t136 136t94 192.5t36 219.5q0 137 -51 258 t-146.5 211t-232.5 141t-309 51q-178 0 -333 -72.5t-270.5 -197.5t-182 -291t-66.5 -352q0 -172 58.5 -311.5t163.5 -237.5t252.5 -151.5t324.5 -53.5q213 0 376.5 64.5t280.5 156.5l12 -16q-86 -68 -176 -115t-178 -75.5t-172 -41t-160 -12.5q-193 0 -358.5 60.5 t-287.5 170t-191.5 262t-69.5 337.5zM760 436q0 -102 39 -156.5t96 -54.5q117 0 211 146.5t139 443.5q6 39 6 64q0 45 -15 80.5t-38.5 59t-52.5 36t-55 12.5q-49 0 -93.5 -33t-80 -86t-65.5 -119.5t-49.5 -137t-30.5 -137.5t-11 -118z" />
<glyph unicode="A" horiz-adv-x="1339" d="M-10 0v20q147 0 205 154l458 1223h39l463 -1213q35 -90 78 -127t117 -37v-20q-61 0 -97 1t-62 2t-47.5 2t-51.5 1q-31 0 -52.5 -1t-47 -2t-64.5 -2t-105 -1v20q25 0 48.5 3.5t44 12.5t33 26.5t12.5 43.5q0 23 -7.5 47.5t-15.5 45.5l-133 350h-430l-135 -373 q-12 -37 -13 -63q0 -29 12.5 -47.5t31 -28.5t42 -13.5t45.5 -3.5v-20q-43 0 -69.5 1t-45 2t-33.5 2t-36 1q-23 0 -38 -1t-33.5 -2t-45 -2t-67.5 -1zM387 586h406l-197 555z" />
<glyph unicode="B" horiz-adv-x="1261" d="M76 0v20q33 0 62.5 5.5t52 19.5t36 40t13.5 69v1063q0 43 -13.5 68.5t-36 39.5t-52 19.5t-62.5 5.5v20q61 0 97 -1t60.5 -2t46 -2t54.5 -1t69.5 1t73.5 3t71 3t58 1q90 0 175 -14.5t151.5 -50t107.5 -99t41 -161.5q0 -131 -83 -208t-216 -106v-2q63 -4 133 -26.5 t128.5 -65.5t96.5 -108.5t38 -155.5q0 -201 -131.5 -290t-368.5 -89q-76 0 -156 5t-164 5q-37 0 -62.5 -1t-54 -2t-66.5 -2t-99 -1zM449 246q0 -61 8 -102.5t32.5 -66t67.5 -34.5t113 -10q135 0 205.5 87t70.5 228q0 178 -96 264t-252 86h-149v-452zM449 735h129 q145 0 216.5 81t71.5 224q0 63 -15 116.5t-50 93.5t-91.5 62.5t-136.5 22.5q-59 0 -91.5 -9t-32.5 -58v-533z" />
<glyph unicode="C" horiz-adv-x="1394" d="M92 688q0 145 54.5 273.5t150.5 224.5t226 152.5t284 56.5q115 0 216 -34t189 -93l37 73h21q0 -49 -1 -94t-1 -90q0 -49 3 -102.5t3 -108.5h-25q-12 188 -126.5 301t-319.5 113q-82 0 -167 -45t-153.5 -133t-111.5 -217t-43 -297q0 -100 24.5 -215t80.5 -213.5 t147.5 -163t224.5 -64.5q100 0 184 32t144.5 92.5t95.5 144.5t39 188h24q0 -59 -3 -126t-3 -105v-39t1 -41.5t2 -53t3 -75.5h-20l-49 84q-18 -14 -53 -37t-87.5 -45.5t-122 -39t-157.5 -16.5q-154 0 -284 46.5t-225 135.5t-148.5 222t-53.5 309z" />
<glyph unicode="D" horiz-adv-x="1456" d="M76 0v20q33 0 62.5 5.5t52 19.5t36 40t13.5 69v1063q0 43 -13.5 68.5t-36 39.5t-52 19.5t-62.5 5.5v20q61 0 98 -1t64.5 -2t50 -2t57.5 -1q66 0 149 6t156 6q156 0 286 -46t225 -133t148.5 -214t53.5 -289q0 -338 -174 -518t-518 -180q-74 0 -163 5t-163 5 q-35 0 -57.5 -1t-49 -2t-63.5 -2t-100 -1zM449 246q0 -57 8 -98.5t30.5 -67t65.5 -37.5t115 -12q121 0 208 50t143 136t82.5 203t26.5 250q0 127 -27.5 247.5t-88 214t-154.5 150.5t-225 57q-29 0 -58.5 -1t-70.5 -5q-25 -4 -40 -18.5t-15 -50.5v-1018z" />
<glyph unicode="E" horiz-adv-x="1183" d="M76 0v20q33 0 62.5 5.5t52 19.5t36 40t13.5 69v1063q0 43 -13.5 68.5t-36 39.5t-52 19.5t-62.5 5.5v20q61 0 97 -1t61.5 -2t48 -2t55.5 -1q70 0 169 6t222 6q80 0 144.5 -2t146.5 -4l12 -266h-20q-6 78 -33 125t-72 71.5t-104.5 32.5t-130.5 8q-18 0 -43 -1t-49.5 -2 t-47 -3t-36.5 -4q-47 -6 -47 -55v-549h139q92 0 136 46t44 130h20q0 -47 -1 -77.5t-2 -51t-2 -35t-1 -30.5t1 -29.5t2 -33t2 -49.5t1 -77h-20q0 80 -44 126t-136 46h-139v-444q0 -74 13 -118t47 -65.5t89 -27.5t139 -6q74 0 138.5 5t113.5 29.5t81 77t40 144.5h23l-17 -287 q-92 -2 -163.5 -3t-155.5 -1q-174 0 -280.5 5t-172.5 5q-33 0 -56.5 -1t-50 -2t-63.5 -2t-98 -1z" />
<glyph unicode="F" horiz-adv-x="1083" d="M76 0v20q33 0 62.5 5.5t52 19.5t36 40t13.5 69v1063q0 43 -13.5 68.5t-36 39.5t-52 19.5t-62.5 5.5v20q61 0 98 -1t63.5 -2t50 -2t56.5 -1q70 0 160 6t213 6q82 0 150.5 -2t150.5 -4l24 -266h-20q-10 78 -40 125t-77 71.5t-109.5 32.5t-138.5 8q-18 0 -40.5 -1l-45 -2 t-42 -2t-29.5 -3q-51 -6 -51 -57v-571h139q92 0 136 46t44 130h20q0 -47 -1 -78t-2 -51.5t-2 -35t-1 -30.5t1 -29.5t2 -33t2 -49t1 -76.5h-20q0 80 -44 126t-136 46h-139v-516q0 -43 13 -69t35.5 -40t52.5 -19.5t62 -5.5v-20q-61 0 -98 1t-63.5 3t-50 3t-56.5 1 q-35 0 -57.5 -1t-49 -3t-63.5 -3t-98 -1z" />
<glyph unicode="G" horiz-adv-x="1542" d="M92 670q0 154 55.5 287t152.5 229t228 151.5t285 55.5q115 0 215 -34t191 -93l49 73h20q-2 -37 -5 -62.5t-5 -46t-4 -38.5t-2 -41v-44t1 -36.5t1 -48.5v-78h-25q-8 188 -123.5 301t-316.5 113q-86 0 -172 -44t-154.5 -131t-111.5 -217t-43 -304q0 -63 8 -136t28.5 -146 t54.5 -139.5t84 -117.5t117.5 -82t155.5 -31q63 0 127 18.5t115 58.5t84 100.5t33 146.5q0 100 -41 143t-152 43v21q61 0 101 -1t71 -3t57.5 -3.5t61.5 -1.5q33 0 57.5 1.5t52 3.5t65.5 3t99 1v-21q-88 0 -126 -29.5t-38 -121.5q0 -55 1.5 -122t5.5 -108 q-72 -6 -134.5 -32.5t-129 -56.5t-144.5 -53.5t-178 -23.5q-150 0 -272.5 50.5t-212 142.5t-138.5 220t-49 284z" />
<glyph unicode="H" horiz-adv-x="1536" d="M76 0v20q33 0 62.5 5.5t52 19.5t36 40t13.5 69v1063q0 43 -13.5 68.5t-36 39.5t-52 19.5t-62.5 5.5v20q61 0 98 -1t63.5 -3t49 -3t57.5 -1q33 0 56.5 1t50 3t63.5 3t98 1v-20q-33 0 -62.5 -5.5t-52 -19.5t-35.5 -39.5t-13 -68.5v-496h638v496q0 43 -13 68.5t-35.5 39.5 t-52.5 19.5t-62 5.5v20q61 0 98 -1t63.5 -3t49 -3t57.5 -1q33 0 56.5 1t50 3t63.5 3t98 1v-20q-33 0 -62.5 -5.5t-52 -19.5t-36 -39.5t-13.5 -68.5v-1063q0 -43 13.5 -69t36 -40t52 -19.5t62.5 -5.5v-20q-61 0 -98 1t-63.5 3t-50 3t-56.5 1q-35 0 -57.5 -1t-49 -3t-63.5 -3 t-98 -1v20q33 0 62.5 5.5t52 19.5t35.5 40t13 69v530h-638v-530q0 -43 13 -69t35.5 -40t52.5 -19.5t62 -5.5v-20q-61 0 -98 1t-63.5 3t-50 3t-56.5 1q-35 0 -57.5 -1t-49 -3t-63.5 -3t-98 -1z" />
<glyph unicode="I" horiz-adv-x="688" d="M76 0v20q33 0 62.5 5.5t52 19.5t36 40t13.5 69v1063q0 43 -13.5 68.5t-36 39.5t-52 19.5t-62.5 5.5v20q61 0 98 -1t63.5 -3t49 -3t57.5 -1q33 0 56.5 1t50 3t63.5 3t98 1v-20q-33 0 -62.5 -5.5t-52 -19.5t-35.5 -39.5t-13 -68.5v-1063q0 -43 13 -69t35.5 -40t52.5 -19.5 t62 -5.5v-20q-61 0 -98 1t-63.5 3t-50 3t-56.5 1q-35 0 -57.5 -1t-49 -3t-63.5 -3t-98 -1z" />
<glyph unicode="J" horiz-adv-x="710" d="M-253.5 -332.5q22.5 19.5 50.5 19.5q57 0 86 -60q10 -23 11.5 -44t5.5 -27q16 -29 52 -49.5t101 -20.5q55 0 95 24.5t65 78t37 140.5t12 210v1278q0 43 -13 68.5t-36 39.5t-52.5 19.5t-62.5 5.5v20q61 0 98 -1t64 -3t49.5 -3t57.5 -1q33 0 56 1t50 3t63.5 3t98.5 1v-20 q-33 0 -62.5 -5.5t-52 -19.5t-36 -39.5t-13.5 -68.5v-1211q0 -209 -47 -323q-49 -123 -148.5 -176.5t-230.5 -53.5q-92 0 -170 17.5t-121 64.5q-30 36 -30 74q0 39 22.5 58.5z" />
<glyph unicode="K" horiz-adv-x="1417" d="M76 0v20q33 0 62.5 5.5t52 19.5t36 40t13.5 69v1063q0 43 -13.5 68.5t-36 39.5t-52 19.5t-62.5 5.5v20q61 0 98 -1t63.5 -3t49 -3t57.5 -1q33 0 56.5 1t50 3t63.5 3t98 1v-20q-33 0 -62.5 -5.5t-52 -19.5t-35.5 -39.5t-13 -68.5v-613q88 74 161.5 154t145.5 172 q49 61 97 127.5t83 130.5q25 43 25 82q0 49 -40 64.5t-94 15.5v20q45 0 74 -1t49.5 -2t39 -2t44.5 -1q27 0 45.5 1t40 2t49 2t74.5 1v-20q-66 0 -114 -27t-86.5 -69t-74.5 -95t-75 -108q-57 -78 -109.5 -144.5t-111.5 -138.5l547 -633q47 -53 101 -84t128 -31v-20 q-61 0 -100 1t-70 2t-59.5 2t-69.5 1t-68.5 -1t-57.5 -2t-69 -2t-102 -1v20q16 0 35.5 3.5t36 10.5t28 21.5t11.5 36.5q0 14 -5.5 29.5t-27.5 42.5l-387 471l-94 -84v-397q0 -43 13 -69t35.5 -40t52.5 -19.5t62 -5.5v-20q-61 0 -98 1t-63.5 3t-50 3t-56.5 1q-35 0 -57.5 -1 t-49 -3t-63.5 -3t-98 -1z" />
<glyph unicode="L" horiz-adv-x="1155" d="M76 0v20q33 0 62.5 5.5t52 19.5t36 40t13.5 69v1063q0 43 -13.5 68.5t-36 39.5t-52 19.5t-62.5 5.5v20q61 0 98 -1t63.5 -3t49 -3t57.5 -1q33 0 56.5 1t50 3t63.5 3t98 1v-20q-33 0 -62.5 -5.5t-52 -19.5t-35.5 -39.5t-13 -68.5v-1006q0 -63 22.5 -99t63 -54.5t96 -22.5 t121.5 -4q74 0 134 11t105 41t74 82t39 132h20l-20 -297q-78 -2 -160 -3t-160 -1q-141 0 -249.5 5t-182.5 5q-35 0 -59.5 -1t-52 -2t-65.5 -2t-99 -1z" />
<glyph unicode="M" horiz-adv-x="1744" d="M66 0v20q33 0 62.5 5.5t52 19.5t35.5 40t13 69v1063q0 43 -13 68.5t-35.5 39.5t-52.5 19.5t-62 5.5v20q57 0 92 -1t57.5 -2t38.5 -2t39 -1q41 0 67.5 3t73.5 3l445 -1055l419 1055q39 0 61.5 -3t70.5 -3q27 0 45 1t41.5 2t58.5 2t94 1v-20q-33 0 -62.5 -5.5t-52 -19.5 t-36 -39.5t-13.5 -68.5v-1063q0 -43 13.5 -69t36 -40t52 -19.5t62.5 -5.5v-20q-61 0 -98 1t-63.5 3t-50 3t-56.5 1q-35 0 -57.5 -1t-49 -3t-63.5 -3t-98 -1v20q33 0 62.5 5.5t52 19.5t35.5 40t13 69v1106l-501 -1262h-4l-523 1225v-1069q0 -43 13.5 -69t36 -40t52 -19.5 t62.5 -5.5v-20q-41 0 -66.5 1t-44 2t-35 2t-38.5 1q-23 0 -39 -1t-34.5 -2t-43.5 -2t-65 -1z" />
<glyph unicode="N" horiz-adv-x="1511" d="M66 1350v20q37 0 63.5 -1t48 -2t38.5 -2t40 -1q20 0 34.5 1l29 2t31 2t40.5 1l852 -1048v895q0 43 -13 68.5t-36 39.5t-52.5 19.5t-62.5 5.5v20q41 0 65.5 -1t43 -2t35 -2t39.5 -1t39 1t34.5 2t44 2t66.5 1v-20q-33 0 -62.5 -5.5t-52 -19.5t-36 -39.5t-13.5 -68.5v-1242 h-37l-946 1186v-1007q0 -43 13.5 -69t36 -40t52 -19.5t62.5 -5.5v-20q-41 0 -66.5 1t-44 2t-35 2t-38.5 1q-23 0 -39.5 -1t-35 -2t-43 -2t-65.5 -1v20q33 0 62.5 5.5t52 19.5t36 40t13.5 69v1052l-45 58q-29 37 -62.5 61.5t-86.5 24.5z" />
<glyph unicode="O" horiz-adv-x="1642" d="M92 686q0 156 55.5 286t152.5 224t231 146.5t292 52.5q147 0 278.5 -50.5t232 -143.5t158.5 -225t58 -294q0 -166 -58 -297t-157.5 -223t-231.5 -141.5t-280 -49.5q-158 0 -291 50.5t-231 143.5t-153.5 225t-55.5 296zM328 682q0 -139 31.5 -262t94 -214t155.5 -144.5 t214 -53.5q115 0 206 52.5t154.5 142.5t97.5 214t34 265q0 139 -34 263t-97.5 216t-154.5 145.5t-206 53.5q-121 0 -214 -56.5t-155.5 -150.5t-94 -217t-31.5 -254z" />
<glyph unicode="P" horiz-adv-x="1183" d="M76 0v20q33 0 62.5 5.5t52 19.5t36 40t13.5 69v1063q0 43 -13.5 68.5t-36 39.5t-52 19.5t-62.5 5.5v20q61 0 101 -1t69.5 -1t52.5 -1t47 -1q49 0 117.5 5t134.5 5q248 0 375 -89t127 -255q0 -207 -132 -301t-368 -94q-39 0 -77 2t-74 6v-491q0 -43 13 -69t35.5 -40 t52.5 -19.5t62 -5.5v-20q-61 0 -98 1t-63.5 3t-50 3t-56.5 1q-35 0 -57.5 -1t-49 -3t-63.5 -3t-98 -1zM449 680q29 -4 56 -6t52 -2q152 0 231.5 82t79.5 266q0 152 -78.5 236.5t-220.5 84.5q-20 0 -41.5 -3t-39 -10t-28.5 -22.5t-11 -39.5v-586z" />
<glyph unicode="Q" horiz-adv-x="1640" d="M92 684q0 160 55.5 290t153.5 224t231 145.5t291 51.5q147 0 279.5 -50.5t232 -143.5t157.5 -225t58 -294q0 -166 -55 -293t-150.5 -216t-221.5 -142.5t-265 -73.5q-41 -6 -98.5 -26.5t-110.5 -55.5q53 16 95 20.5t92 4.5q117 0 209 -34t173.5 -75t159.5 -74.5t164 -33.5 q33 0 70 7t70.5 25.5t59 52t32.5 87.5h20q0 -82 -22.5 -151t-65.5 -119t-106.5 -78.5t-145.5 -28.5q-80 0 -147.5 26.5t-129 65.5t-120 86t-117.5 86t-123.5 65.5t-138.5 26.5q-35 0 -58.5 -6t-43 -15.5t-39 -22.5t-43.5 -28q-12 -8 -32 -16t-38 -8q-14 0 -25.5 8t-11.5 27 q0 18 21.5 31.5t49 23.5t53.5 16t32 11q14 8 39.5 24.5t54.5 33.5t57.5 33.5t48.5 24.5q-139 14 -257.5 69.5t-207 147t-137.5 217t-49 279.5zM328 682q0 -141 31.5 -265t94 -214t155.5 -142.5t214 -52.5q115 0 206 52.5t154.5 142.5t97.5 214t34 265q0 137 -34 260 t-96.5 216t-153.5 147.5t-206 54.5q-119 0 -212 -54.5t-156.5 -147.5t-96 -216t-32.5 -260z" />
<glyph unicode="R" horiz-adv-x="1359" d="M76 0v20q33 0 62.5 5.5t52 19.5t36 40t13.5 69v1063q0 43 -13.5 68.5t-36 39.5t-52 19.5t-62.5 5.5v20q61 0 98 -1t62.5 -1t48 -1t55.5 -1q53 0 124 5t157 5q80 0 166.5 -12t159.5 -49t120 -105.5t47 -181.5q0 -76 -30.5 -137.5t-81 -106.5t-115 -74.5t-131.5 -39.5 q20 -27 71.5 -88.5t115 -138t132 -157.5t123.5 -145q47 -53 89 -87t93 -34v-20q-45 0 -72.5 1t-46 2t-35 2t-40.5 1q-25 0 -42.5 -1t-32.5 -2t-33.5 -2t-47.5 -1q-63 80 -116.5 150.5t-104.5 138t-104.5 136.5t-114.5 146q-31 39 -53.5 54.5t-69.5 15.5h-18v-487 q0 -43 13 -69t35.5 -40t52.5 -19.5t62 -5.5v-20q-61 0 -98 1t-63.5 3t-50 3t-56.5 1q-35 0 -57.5 -1t-49 -3t-63.5 -3t-98 -1zM449 678h102q166 0 248 90t82 264q0 63 -20.5 118.5t-59.5 97.5t-96.5 66.5t-129.5 24.5q-16 0 -38.5 -1t-42 -9t-32.5 -23.5t-13 -41.5v-586z " />
<glyph unicode="S" horiz-adv-x="1046" d="M102 16q0 63 2 100.5t2 78.5q0 43 -2 93t-2 115h25q4 -78 31.5 -148.5t76 -123.5t116 -86t153.5 -33q63 0 119.5 20.5t98.5 58.5t65.5 89t23.5 113q0 63 -30.5 112.5t-79 87t-107.5 67.5t-115 56q-66 31 -129 68t-113.5 86t-81 113.5t-30.5 152.5q0 74 31.5 139.5 t85 114.5t123 78t145.5 29q78 0 149.5 -28t135.5 -79l43 78h20q0 -35 -1 -73t-1 -74q0 -39 5 -88.5t5 -92.5h-24q-6 59 -33 116.5t-69 104t-98 74t-124 27.5q-53 0 -99 -20.5t-79 -54.5t-51.5 -81t-18.5 -98q0 -76 39 -126t98.5 -85t129 -62.5t131.5 -58.5 q63 -33 119.5 -69.5t97.5 -84t65.5 -109.5t24.5 -148t-35 -158t-96.5 -123t-145.5 -80t-184 -29q-102 0 -183 34t-161 87l-47 -80h-21z" />
<glyph unicode="T" horiz-adv-x="1275" d="M41 1075l10 299q47 2 87 2h75q82 0 143.5 -2t109.5 -3t87 -3t78 -2t78 2t88 3t111.5 3t148.5 2h78t88 -2l12 -299h-21q-4 51 -18 99.5t-43 86t-73 60t-105 22.5q-10 0 -65.5 -3t-172.5 -9v-1177q0 -43 13.5 -69t36 -40t52 -19.5t62.5 -5.5v-20q-61 0 -98 1t-63.5 3t-50 3 t-56.5 1q-35 0 -57.5 -1t-49 -3t-63.5 -3t-98 -1v20q33 0 62.5 5.5t52 19.5t35.5 40t13 69v1177q-117 4 -168 6t-61 2q-121 -2 -175 -74.5t-63 -189.5h-20z" />
<glyph unicode="U" horiz-adv-x="1464" d="M55 1350v20q61 0 98 -1t64 -3t49.5 -3t57.5 -1q33 0 56 1t50 3t63.5 3t98.5 1v-20q-33 0 -62.5 -5.5t-52 -19.5t-36 -39.5t-13.5 -68.5v-773q0 -92 20.5 -167.5t67.5 -130t122 -83t185 -28.5q188 0 293 105.5t105 303.5v773q0 43 -13.5 68.5t-36 39.5t-52 19.5t-62.5 5.5 v20q41 0 65.5 -1t43 -2t35 -2t38.5 -1q23 0 39 1t34.5 2t44 2t66.5 1v-20q-33 0 -62.5 -5.5t-52 -19.5t-35.5 -39.5t-13 -68.5v-748q0 -137 -35 -230.5t-98.5 -151.5t-153.5 -84t-201 -26q-98 0 -197.5 16.5t-178.5 67t-128 145.5t-49 255v756q0 43 -13 68.5t-36 39.5 t-52.5 19.5t-62.5 5.5z" />
<glyph unicode="V" horiz-adv-x="1359" d="M20 1350v20q61 0 99.5 -1t65 -2t47 -2t49.5 -1t49 1t46.5 2t65.5 2t105 1v-20q-27 -2 -52.5 -5.5t-46 -12.5t-33 -27.5t-12.5 -51.5q0 -20 6.5 -41.5t12.5 -40.5l356 -917l330 899q8 23 13 44.5t5 41.5q0 31 -12 52.5t-32.5 34.5t-46 18.5t-50.5 5.5v20q43 0 70.5 -1 t48 -2t36 -2t34.5 -1q20 0 35.5 1t33 2t40 2t56.5 1v-20q-121 -2 -165 -123l-459 -1252h-33l-479 1215q-16 39 -29.5 68.5t-34 50t-48.5 31t-71 10.5z" />
<glyph unicode="W" horiz-adv-x="1966" d="M10 1350v20q72 0 114 -1t70.5 -3t51 -3t55.5 -1q31 0 52.5 1t49 3t68.5 3t111 1v-20q-27 0 -56.5 -3.5t-55.5 -13.5t-42 -32.5t-16 -61.5q0 -20 4 -40.5t10 -39.5l281 -872l264 803l-39 122q-25 76 -67 107t-113 31v20q74 0 118.5 -1t74.5 -3t51.5 -3t50.5 -1q27 0 48 1 t52 3t78 3t127 1v-20q-37 0 -73 -6.5t-63.5 -23.5t-44 -49t-16.5 -81q0 -45 10.5 -88t24.5 -84l237 -733l273 837q10 35 14 58.5t4 42.5q0 78 -51 102.5t-129 24.5v20q49 0 80 -1t52.5 -2t38.5 -2t44 -1q25 0 42 1t36.5 2t48.5 2t76 1v-20q-47 0 -79 -11.5t-54.5 -35 t-38 -58.5t-29.5 -80l-387 -1190h-37l-340 1051l-346 -1051h-41l-401 1231q-29 84 -72 112t-121 32z" />
<glyph unicode="X" horiz-adv-x="1349" d="M10 0v20q55 2 95 15.5t72 38t60.5 59.5t61.5 82l297 430l-363 565q-35 55 -79.5 97.5t-133.5 42.5v20q61 0 102.5 -1t72 -3t54 -3t48.5 -1t49.5 1t55 3t71.5 3t98 1v-20q-10 0 -32.5 -1t-45 -7.5t-41 -19.5t-18.5 -38q0 -20 9.5 -38.5t27.5 -47.5l250 -387l264 383 q37 51 37 84q0 25 -14.5 39t-35 21.5t-46 9.5t-45.5 2v20q45 0 73.5 -1t50 -3t40 -3t42.5 -1q23 0 40.5 1t37 3t45 3t64.5 1v-20q-78 0 -128 -30t-93 -91l-312 -451l398 -618q20 -33 40.5 -57.5t46 -42t57.5 -27.5t77 -13v-20q-63 0 -105.5 1t-72 3t-51 3t-44.5 1t-44 -1 t-50.5 -3t-72.5 -3t-111 -1v20q14 0 36.5 1.5t43 7.5t35 19t14.5 38q0 29 -29 74l-293 454l-290 -430q-41 -61 -41 -94q0 -25 12 -39t31.5 -20t44 -8.5t47.5 -2.5v-20q-43 0 -72 1t-50.5 2t-39.5 2t-41 1t-41 -1t-40.5 -2t-51.5 -2t-74 -1z" />
<glyph unicode="Y" horiz-adv-x="1306" d="M10 1350v20q51 0 84 -1t59.5 -3t51 -3t59.5 -1q33 0 56.5 1t50 3t60.5 3t89 1v-20q-18 0 -39.5 -2t-39 -10.5t-30 -23t-12.5 -40.5q0 -27 11.5 -51.5t27.5 -53.5l289 -526l313 522q29 51 29 88q0 59 -35 78t-88 19v20q43 0 69.5 -1t45 -2t32 -2t31.5 -1t32.5 1t32 2t42 2 t65.5 1v-20q-39 0 -65.5 -11.5t-48 -31t-39 -46t-35.5 -59.5l-352 -588v-460q0 -43 13 -69t35.5 -40t52.5 -19.5t63 -5.5v-20q-61 0 -98.5 1t-64 3t-50 3t-56.5 1q-35 0 -57.5 -1t-49 -3t-63.5 -3t-98 -1v20q33 0 62.5 5.5t52 19.5t36 40t13.5 69v430l-338 598 q-27 47 -45.5 77.5t-39 50t-47 28t-67.5 12.5z" />
<glyph unicode="Z" horiz-adv-x="1134" d="M61 0l750 1331q-129 4 -200.5 6t-123.5 2h-73.5t-57.5 -4q-92 -8 -139 -71.5t-57 -161.5h-21l17 268q57 2 134 4t134 2q117 0 217 -4t217 -4h56.5h45t45 1t56.5 1l-748 -1329q135 -2 222.5 -3t136.5 -1h68.5h21.5q135 0 202.5 61.5t84.5 198.5h20l-18 -297 q-55 -2 -110.5 -2h-113.5q-139 0 -279 2t-243 2h-58.5t-68.5 -1t-65.5 -1h-51.5z" />
<glyph unicode="[" horiz-adv-x="821" d="M246 -428v1798h432v-35h-293v-1726h293v-37h-432z" />
<glyph unicode="\" horiz-adv-x="1200" d="M-20 1370h77l1164 -1798h-72z" />
<glyph unicode="]" horiz-adv-x="821" d="M143 -391h293v1726h-293v35h432v-1798h-432v37z" />
<glyph unicode="^" horiz-adv-x="1069" d="M82 530l405 813h95l405 -813h-100l-352 711l-353 -711h-100z" />
<glyph unicode="_" horiz-adv-x="1191" d="M82 -193h1028v-83h-1028v83z" />
<glyph unicode="`" horiz-adv-x="673" d="M133 1348q0 31 19.5 49t46.5 18q23 0 39 -11t32 -30l281 -319h-29l-293 186q-35 23 -65.5 44.5t-30.5 62.5z" />
<glyph unicode="a" horiz-adv-x="974" d="M86 184q0 68 37 112t76 69q61 41 139 72.5t156 66.5q23 10 47 21.5t43.5 21.5t32 19t12.5 20v86q0 20 -3 55t-19.5 68.5t-54.5 58.5t-106 25q-20 0 -55 -4.5t-68.5 -13.5t-58 -24.5t-24.5 -35.5q0 -4 7 -23.5t7 -50.5q0 -25 -18.5 -48.5t-53.5 -23.5q-25 0 -49 20.5 t-24 67.5t38.5 79t94 51.5t116 27.5t103.5 8q70 0 132 -13t108.5 -46t73 -88t26.5 -139v-449q0 -16 2 -36.5t8 -39t19.5 -32t37.5 -13.5q25 0 41.5 17.5t26.5 33.5l18 -8q-4 -10 -17 -29.5t-34.5 -39t-51.5 -35t-67 -15.5q-59 0 -100 39t-51 95q-72 -59 -149.5 -96.5 t-174.5 -37.5q-45 0 -85 12.5t-70.5 38t-49 64.5t-18.5 92zM264 211q0 -31 8.5 -59.5t24.5 -52t40.5 -38t59.5 -14.5q72 0 133.5 32t98.5 71v382q-59 -31 -129 -60.5t-121 -63.5q-59 -41 -87 -92.5t-28 -104.5z" />
<glyph unicode="b" horiz-adv-x="1103" d="M20 1311v20q76 6 157 24.5t153 47.5v-604q39 41 100.5 72.5t159.5 31.5t178 -33.5t136.5 -93t87 -141.5t30.5 -176q0 -98 -27.5 -186.5t-85 -155t-142.5 -105.5t-198 -39q-94 0 -161.5 37t-120.5 96l-107 -118h-22v1206q0 39 -10.5 62.5t-29 36t-43 15.5t-55.5 3z M330 266q0 -76 21.5 -125t55 -77.5t73.5 -40t77 -11.5q86 0 139.5 41t82 103.5t38.5 138t10 145.5q0 74 -13 150t-44 137t-82 99t-125 38q-59 0 -103 -19.5t-73 -52t-43 -74.5t-14 -87v-365z" />
<glyph unicode="c" horiz-adv-x="884" d="M82 424q0 102 37 191.5t102.5 154t153.5 101t192 36.5q25 0 68 -5t83 -19.5t69.5 -42t29.5 -72.5q0 -29 -16.5 -52.5t-55.5 -23.5q-29 0 -49 22.5t-20 59.5q0 16 3 31.5t3 17.5q0 12 -11.5 22.5t-28.5 17.5t-36.5 10.5t-38.5 3.5q-82 0 -138 -39t-91 -102.5t-50.5 -141.5 t-15.5 -156q0 -193 81 -302t216 -109q49 0 90 11t73 29.5t56.5 39t40.5 38.5l15 -14q-66 -80 -152 -118t-178 -38q-90 0 -168 30t-137 87.5t-93 140t-34 191.5z" />
<glyph unicode="d" horiz-adv-x="1120" d="M82 455q0 88 28.5 170t84 143t134.5 98t179 37q90 0 151.5 -39t102.5 -84v414q0 39 -10.5 62.5t-28.5 36t-43 15.5t-55 3v20q76 6 154.5 25.5t154.5 46.5v-1163q0 -100 38 -135t107 -35v-21q-53 -10 -123.5 -29.5t-132.5 -37.5q-10 27 -19 65.5t-18 83.5 q-47 -59 -114.5 -107.5t-173.5 -48.5q-102 0 -180 39t-130.5 104.5t-79 152.5t-26.5 184zM276 442q0 -49 8.5 -121.5t34 -140t74.5 -116t133 -48.5q98 0 167 74t69 227v312q0 41 -16.5 83t-47 75.5t-77 55t-105.5 21.5q-68 0 -113 -36.5t-73.5 -96t-41 -135.5t-12.5 -154z " />
<glyph unicode="e" horiz-adv-x="993" d="M82 428q0 98 35 184t97 151.5t146 103.5t183 38q72 0 138.5 -23.5t116.5 -66.5t82.5 -102.5t37.5 -128.5q0 -12 -1.5 -22.5t-11.5 -10.5h-620q-4 -29 -6.5 -60.5t-2.5 -60.5q0 -197 86.5 -301t223.5 -104q55 0 98 13t77 32.5t58.5 42t42.5 41.5l15 -15 q-23 -27 -54.5 -55.5t-74.5 -53t-96.5 -40t-119.5 -15.5q-86 0 -166.5 30t-143 87.5t-101.5 142t-39 193.5zM289 582h420q33 0 32 32q0 39 -9 85t-31.5 85t-61.5 64.5t-100 25.5q-70 0 -115 -29.5t-72.5 -74.5t-41 -95t-21.5 -93z" />
<glyph unicode="f" horiz-adv-x="679" d="M66 0v20q31 0 55 3.5t42.5 15.5t29 34.5t10.5 63.5v709h-133v31h133v102q0 25 2 65.5t12 88t31.5 95.5t62.5 87t103.5 63.5t154.5 24.5q31 0 77 -4t89 -19.5t74 -43t31 -72.5q0 -25 -15.5 -44.5t-48.5 -19.5q-23 0 -41 14.5t-28 38.5q-10 29 -9.5 41.5t-1.5 16.5 q-14 29 -42.5 45t-84.5 16q-66 0 -104.5 -30.5t-59 -75.5t-26.5 -94.5t-6 -88.5v-206h211v-31h-211v-696q0 -45 17.5 -71t43 -39t57 -16.5t62.5 -3.5v-20q-66 0 -104.5 1t-64.5 2t-47.5 2t-47.5 1q-29 0 -48.5 -1t-42 -2t-53 -2t-79.5 -1z" />
<glyph unicode="g" horiz-adv-x="1105" d="M66 -276q0 33 12 62.5t33.5 51t49 34.5t58.5 13q35 0 54.5 -12t29.5 -25q-53 -16 -79.5 -55t-26.5 -92q0 -29 9 -69t41 -76.5t92 -62t163 -25.5q86 0 147.5 21.5t102.5 56t60 76.5t19 85q0 76 -31.5 118t-87 62.5t-128 24.5t-152.5 6q-43 2 -96 7t-99.5 22.5t-77 52.5 t-30.5 96q0 72 55.5 123t141.5 62q-100 35 -166 113.5t-66 185.5q0 68 26.5 127t75 103t117 69.5t154.5 25.5q57 0 102 -12t77 -28.5t52.5 -34t32.5 -29.5q18 14 41 31.5t48.5 32t53 24.5t56.5 10q20 0 41.5 -6t39 -17.5t29 -29t11.5 -39.5q0 -66 -62 -66q-29 0 -45 13.5 t-27.5 30t-16.5 30.5t-7 16q-10 8 -27 9q-29 0 -59 -21t-53 -41q39 -45 58 -96t19 -102q0 -49 -13 -103.5t-52 -100.5t-108.5 -78t-180.5 -40q-23 -2 -65.5 -2t-84.5 -7t-73 -24.5t-31 -54.5q0 -35 33 -51.5t82 -22.5t108.5 -7t114.5 -3q78 -4 148.5 -17.5t125 -47t87 -90 t32.5 -142.5q0 -78 -33.5 -142.5t-94 -110.5t-144.5 -72.5t-182 -26.5q-135 0 -220 29.5t-133.5 72.5t-64.5 93.5t-16 91.5zM270 578q0 -84 19.5 -140.5t48.5 -89.5t62.5 -46t62.5 -13q31 0 65.5 13t62 46t46 89.5t18.5 140.5q0 92 -19.5 150t-48 91t-61 44t-61.5 11 t-63.5 -11t-63.5 -44t-48.5 -91t-19.5 -150z" />
<glyph unicode="h" horiz-adv-x="1177" d="M61 0v20q31 0 55.5 3.5t43 15.5t29 34.5t10.5 63.5v1059q0 39 -10.5 62.5t-29 36t-43 15.5t-55.5 3v20q76 6 154 25.5t154 46.5v-657q51 74 127.5 117.5t193.5 43.5q111 0 170.5 -42t87 -101t32.5 -121.5t5 -101.5v-406q0 -41 10.5 -63.5t28.5 -34.5t43 -15.5t55 -3.5 v-20q-49 0 -79.5 1t-53 2t-43 2t-47.5 1q-29 0 -48.5 -1t-42 -2t-53 -2t-79.5 -1v20q31 0 55.5 3.5t43 15.5t28.5 34.5t10 63.5v424q0 25 -3 75t-19.5 99t-51 87t-100.5 38q-53 0 -101.5 -19.5t-85 -55t-59 -86t-22.5 -111.5v-451q0 -41 10 -63.5t28.5 -34.5t43 -15.5 t55.5 -3.5v-20q-49 0 -80 1t-53.5 2t-43 2t-46.5 1q-29 0 -48.5 -1t-42 -2t-53 -2t-80.5 -1z" />
<glyph unicode="i" horiz-adv-x="563" d="M61 0v20q31 0 55.5 3.5t43 15.5t29 34.5t10.5 63.5v565q0 39 -10.5 62.5t-29 36t-43 15.5t-55.5 3v21q76 6 155 24.5t155 46.5v-774q0 -41 10 -63.5t28.5 -34.5t43 -15.5t55.5 -3.5v-20q-49 0 -80 1t-53.5 2t-43 2t-46.5 1q-29 0 -48.5 -1t-42 -2t-53 -2t-80.5 -1z M145 1221q0 47 33 79.5t80 32.5t80 -32.5t33 -79.5t-33 -80t-80 -33t-80 33t-33 80z" />
<glyph unicode="j" horiz-adv-x="536" d="M-291 -424q0 31 20.5 49.5t45.5 18.5q33 0 50 -17.5t26.5 -40t11.5 -43t4 -24.5q14 -29 43 -40t88 -11q74 0 114 44t58 114.5t21.5 157.5t3.5 171v747q0 39 -10.5 62.5t-29 36t-43 15.5t-55.5 3v21q76 6 155 25.5t155 45.5v-956q0 -33 -1 -76t-6.5 -89t-16.5 -91t-32 -84 q-16 -33 -45.5 -64.5t-71.5 -57t-93.5 -41t-110.5 -15.5q-31 0 -79 5t-92 19.5t-77 42t-33 72.5zM143 1219q0 47 33 79.5t80 32.5t80 -32.5t33 -79.5t-33 -80t-80 -33t-80 32.5t-33 80.5z" />
<glyph unicode="k" horiz-adv-x="1046" d="M66 0v20q31 0 55 3.5t42.5 15.5t29 34.5t10.5 63.5v1061q0 39 -10.5 62.5t-29 36t-43 15.5t-54.5 3v18q76 6 154.5 25.5t154.5 46.5v-954q20 18 58 54t80 79t83 87t68 79q22 30 22 57q0 41 -31.5 50t-68.5 11v19q35 0 56.5 -1t37.5 -1t30.5 -1t32.5 -1t31.5 1t29 1t36 1 t51.5 1v-19q-23 0 -36 -3t-28 -9q-49 -23 -118.5 -106.5t-198.5 -212.5l215 -234q57 -61 110.5 -118.5t112.5 -114.5q33 -31 57.5 -40.5t51.5 -9.5v-20q-35 0 -55.5 1t-36 1t-29.5 1t-37 1q-14 0 -25.5 -1t-23.5 -1t-29.5 -1t-44.5 -1l-375 430l-26 -27v-266q0 -41 10 -63.5 t28.5 -34.5t43 -15.5t55.5 -3.5v-20q-49 0 -80 1t-53.5 2t-43 2t-46.5 1q-29 0 -48.5 -1t-42 -2t-53 -2t-79.5 -1z" />
<glyph unicode="l" horiz-adv-x="569" d="M61 0v20q31 0 55.5 3.5t43 15.5t29 34.5t10.5 63.5v1051q0 39 -10.5 62.5t-29 35.5t-43 15.5t-55.5 3.5v20q76 6 155 24.5t155 47.5v-1260q0 -41 10 -63.5t28.5 -34.5t43 -15.5t55.5 -3.5v-20q-49 0 -80 1t-53.5 2t-43 2t-46.5 1q-29 0 -48.5 -1t-42 -2t-53 -2t-80.5 -1z " />
<glyph unicode="m" horiz-adv-x="1697" d="M66 0v20q31 0 55 3.5t42.5 15.5t29 34.5t10.5 63.5v568q0 39 -10.5 62.5t-29 35.5t-43 15t-54.5 3v21q72 8 138 27.5t132 48.5q10 -53 15 -95.5t9 -101.5q41 94 121 141t181 47q86 0 150.5 -45t98.5 -116q53 92 129 126.5t177 34.5q98 0 155.5 -35.5t87 -89t37.5 -115 t8 -114.5v-418q0 -41 10.5 -63.5t29 -34.5t43 -15.5t54.5 -3.5v-20q-49 0 -79.5 1t-53 2t-43 2t-47.5 1q-29 0 -48 -1t-41.5 -2t-53.5 -2t-80 -1v20q31 0 55.5 3.5t43 15.5t28.5 34.5t10 63.5v438q0 23 -3 72t-19.5 98.5t-51 87t-96.5 37.5q-39 0 -79 -15t-71.5 -46t-52 -77 t-20.5 -107v-488q0 -41 10.5 -63.5t28.5 -34.5t43 -15.5t55 -3.5v-20q-49 0 -79.5 1t-53 2t-43 2t-47.5 1q-29 0 -48.5 -1t-42 -2t-53 -2t-79.5 -1v20q31 0 55.5 3.5t43 15.5t28.5 34.5t10 63.5v418q0 31 -3 83t-18.5 101t-51.5 86t-99 37q-43 0 -83 -22.5t-70.5 -61.5 t-49 -88t-18.5 -104v-449q0 -41 10 -63.5t28.5 -34.5t43 -15.5t55.5 -3.5v-20q-49 0 -80 1t-53.5 2t-43 2t-46.5 1q-29 0 -48.5 -1t-42 -2t-53 -2t-79.5 -1z" />
<glyph unicode="n" horiz-adv-x="1157" d="M66 0v20q31 0 55 3.5t42.5 15.5t29 34.5t10.5 63.5v568q0 39 -10.5 62.5t-29 35.5t-43 15t-54.5 3v21q72 8 138 27.5t132 48.5q10 -51 17 -105.5t9 -89.5q47 86 134.5 136t197.5 50q100 0 157.5 -36.5t86.5 -90t35 -112t6 -103.5v-430q0 -41 10 -63.5t28.5 -34.5 t43 -15.5t55.5 -3.5v-20q-49 0 -79.5 1t-53 2t-43 2t-47.5 1q-29 0 -48.5 -1t-42 -2t-53 -2t-79.5 -1v20q31 0 55.5 3.5t42.5 15.5t28.5 34.5t10.5 63.5v438q0 25 -3 72t-19.5 95.5t-51.5 83t-98 34.5q-47 0 -94 -21.5t-84 -58.5t-59.5 -84t-22.5 -98v-461q0 -41 10 -63.5 t28.5 -34.5t43 -15.5t55.5 -3.5v-20q-49 0 -80 1t-53.5 2t-43 2t-46.5 1q-29 0 -48.5 -1t-42 -2t-53 -2t-79.5 -1z" />
<glyph unicode="o" horiz-adv-x="1114" d="M82 442q0 106 37 192.5t101.5 148t152.5 94t188 32.5q96 0 181 -32.5t149.5 -94t102.5 -148t38 -190.5q0 -102 -35.5 -188t-98 -148.5t-149.5 -98.5t-188 -36q-102 0 -189 36t-151.5 98.5t-101.5 148.5t-37 186zM276 442q0 -86 16.5 -165.5t52.5 -140t89 -97.5t127 -37 t127 37t86 98.5t48.5 141t15.5 165.5t-16.5 165t-50.5 138.5t-86 95.5t-124 36q-74 0 -127 -36t-88 -95.5t-52.5 -139.5t-17.5 -166z" />
<glyph unicode="p" horiz-adv-x="1138" d="M51 -514q31 0 55.5 3t43 15.5t28.5 35t10 63.5v1091q0 39 -10 62.5t-28.5 36t-43 15.5t-55.5 3v20q72 8 138.5 28t132.5 48q8 -43 14 -81t8 -64q45 57 119 102t166 45q104 0 185 -37.5t134 -102t81 -149.5t28 -180q0 -86 -26.5 -169t-79 -149.5t-130.5 -106.5t-182 -40 q-102 0 -166.5 37t-112.5 97v-506q0 -41 10.5 -63.5t29 -35t43 -15.5t55.5 -3v-21q-49 0 -80 1.5t-53.5 2.5t-43 2t-47.5 1q-29 0 -48 -1t-41.5 -2t-53.5 -2.5t-80 -1.5v21zM360 272q0 -49 17.5 -96t51.5 -82t81 -56.5t108 -21.5q68 0 115 37t76 96.5t41 134t12 152.5 q0 70 -10 144.5t-40 138t-81 104.5t-133 41q-98 0 -168 -70.5t-70 -199.5v-322z" />
<glyph unicode="q" horiz-adv-x="1120" d="M82 420q0 94 29.5 183t88 158.5t145.5 110.5t200 41q82 0 146.5 -25.5t119.5 -70.5l141 94v-1308q0 -41 10.5 -63.5t29 -35t43 -15.5t55.5 -3v-21q-49 0 -80 1.5t-53.5 2.5t-43 2t-47.5 1q-29 0 -48 -1t-41.5 -2t-53.5 -2.5t-80 -1.5v21q31 0 55.5 3t43 15.5t28.5 35 t10 63.5v506q-41 -53 -107.5 -93.5t-170.5 -40.5q-98 0 -176 38t-132.5 100.5t-83 142.5t-28.5 164zM276 438q0 -70 14.5 -144.5t45.5 -137t78 -102.5t112 -40q57 0 104.5 22.5t80 59.5t51 83t18.5 91v373q0 66 -19.5 110t-50 71.5t-69.5 38.5t-80 11q-84 0 -138 -41.5 t-87 -106t-46.5 -141.5t-13.5 -147z" />
<glyph unicode="r" horiz-adv-x="827" d="M66 0v20q31 0 55 3.5t42.5 15.5t29 34.5t10.5 63.5v559q0 80 -39 102.5t-98 22.5v21q72 8 138 27.5t132 48.5q12 -45 19 -105.5t10 -114.5q45 100 117.5 160t166.5 60q20 0 46 -5.5t47.5 -17.5t36 -32.5t13.5 -51.5q0 -29 -16 -48.5t-51 -19.5q-29 0 -46 16.5t-26.5 38 t-13.5 39t-8 21.5q-16 12 -41 12q-43 0 -82 -28.5t-68.5 -71.5t-47 -94t-17.5 -96v-443q0 -41 10 -63.5t28.5 -34.5t43 -15.5t55.5 -3.5v-20q-49 0 -80 1t-53.5 2t-43 2t-46.5 1q-29 0 -48.5 -1t-42 -2t-53 -2t-79.5 -1z" />
<glyph unicode="s" horiz-adv-x="747" d="M94 272h25q0 -51 17.5 -99t50 -85t78.5 -59.5t104 -22.5q31 0 61.5 11.5t55 33t41 50t16.5 65.5q0 43 -19.5 74.5t-51.5 56.5t-69.5 44t-74.5 40q-43 25 -85 48.5t-74 56t-51.5 76.5t-19.5 106q0 55 20.5 100t55.5 77t79 48t93 16q70 0 112 -15t72 -32l39 47h19 q0 -39 -1 -63.5t-1 -52.5q0 -29 1 -69t1 -81h-25q0 39 -13 81t-39 77t-65.5 57.5t-93.5 22.5q-66 0 -106.5 -39t-40.5 -92q0 -49 27.5 -84t68.5 -61.5t90 -48t90 -46.5q92 -53 143.5 -112.5t51.5 -153.5q0 -70 -26.5 -120t-69.5 -83t-96.5 -49.5t-104.5 -16.5 q-59 0 -120.5 17.5t-108.5 52.5l-33 -51h-21q0 45 1 75.5t1 65.5t-2 65.5t-2 71.5z" />
<glyph unicode="t" horiz-adv-x="688" d="M72 846v20q86 31 158.5 102.5t107.5 157.5h22v-249h213v-31h-213v-559q0 -47 3.5 -93.5t16.5 -83t39.5 -59t74.5 -22.5q57 0 90.5 25.5t56.5 60.5l16 -13q-29 -47 -83 -87t-142 -40q-72 0 -119 20.5t-74.5 56.5t-39 83t-11.5 101v610h-116z" />
<glyph unicode="u" horiz-adv-x="1159" d="M41 866v21q43 0 68.5 -1t46 -2t39 -2t47.5 -1q14 0 24 1t21.5 2t26 2t36.5 1v-594q0 -27 3 -72t20.5 -89t52.5 -75.5t100 -31.5q49 0 97.5 17t85 49t59.5 75t23 96v488q0 39 -10.5 62.5t-29 35.5t-43 15t-55.5 3v21q43 0 71 -1t47.5 -2t35.5 -2t39 -1q18 0 29.5 1t23.5 2 t26.5 2t37.5 1v-643q0 -100 36.5 -135t108.5 -35v-21q-27 -6 -62.5 -13t-73.5 -16.5t-75 -19.5t-68 -18q-20 55 -34 137q-49 -76 -137.5 -112t-186.5 -36q-127 0 -210 71t-83 226v478q0 39 -10 62.5t-28.5 35.5t-43 15t-55.5 3z" />
<glyph unicode="v" horiz-adv-x="927" d="M-20 866v21q41 0 66.5 -1t46 -2t40 -2t49.5 -1q31 0 52.5 1l43 2t48 2t67.5 1v-21q-35 0 -67.5 -15t-32.5 -60q0 -27 10 -52l223 -555l205 537q14 39 14 67q0 43 -32.5 60.5t-75.5 17.5v21q31 0 49.5 -1t32.5 -2t27.5 -2t29.5 -1t28.5 1t26 2t32 2t44.5 1v-21 q-47 0 -78.5 -33.5t-60.5 -105.5l-289 -758h-39l-293 707q-12 29 -27.5 62.5t-34.5 62t-46 47t-59 18.5z" />
<glyph unicode="w" horiz-adv-x="1355" d="M-20 866v21q43 0 69.5 -1t47 -3t39 -3t42.5 -1q27 0 48.5 1t44 3t51 3t71.5 1v-21q-41 0 -76.5 -15t-37.5 -60q0 -23 8 -48l180 -538l244 680h20l250 -680l176 506q14 43 14 73q0 49 -31.5 64.5t-80.5 17.5v21q55 0 82.5 -4t62.5 -4q16 0 28.5 1t27 3t32 3t43.5 1v-21 q-43 0 -76.5 -31.5t-58.5 -103.5l-264 -758h-41l-238 664l-239 -664h-39l-248 717q-10 31 -21.5 62.5t-26.5 56.5t-40 41t-63 16z" />
<glyph unicode="x" horiz-adv-x="1058" d="M20 0v20q63 0 108.5 23t94.5 84l219 274l-237 336q-20 29 -37.5 52.5t-38 41t-46.5 26.5t-60 9v21h68.5t50 -1t43 -1h48.5h48.5t45 1t53.5 1h73v-21q-35 0 -60.5 -7t-25.5 -38q0 -25 26 -63l162 -232l164 213q20 27 27.5 45.5t7.5 30.5q0 18 -9.5 28.5t-23.5 15.5 t-29.5 6t-27.5 1v21q33 0 52 -1t34.5 -2t28 -2t30.5 -1q20 0 34.5 1t30 2t36 2t51.5 1v-21q-61 -4 -99.5 -24.5t-79.5 -73.5l-209 -268l234 -328q45 -61 97 -106.5t124 -45.5v-20q-47 0 -77.5 1t-54.5 2t-44.5 2t-46.5 1q-29 0 -51.5 -1t-47 -2t-56.5 -2t-77 -1v20 q29 0 59 6.5t30 36.5q0 12 -5.5 23.5t-17.5 30.5l-178 256l-187 -236q-16 -23 -21 -36t-5 -27q0 -33 30.5 -43.5t53.5 -10.5v-20q-61 0 -90 3t-64 3q-20 0 -33.5 -1t-30 -2t-38 -2t-56.5 -1z" />
<glyph unicode="y" horiz-adv-x="905" d="M-14 866v21q45 0 72.5 -1t48 -2t39 -2t42.5 -1q27 0 46.5 1t41 2t49 2t70.5 1v-21q-37 0 -69.5 -13t-32.5 -65q0 -23 10 -49l217 -522l217 504q14 35 15 59q0 47 -29 65.5t-74 20.5v21q31 0 49.5 -1t32.5 -2t27.5 -2t29.5 -1t28.5 1t26 2t31 2t46.5 1v-21q-55 -2 -85 -40 t-61 -109l-457 -1057q-10 -25 -27.5 -62.5t-39 -71.5t-47 -58.5t-49.5 -24.5q-23 0 -38.5 12.5t-15.5 38.5q0 33 29 54.5t74 33.5q10 4 36.5 26.5t53.5 82.5l139 321l-289 674q-16 39 -31.5 73t-33 57.5t-40 36.5t-52.5 13z" />
<glyph unicode="z" horiz-adv-x="827" d="M41 0l514 856q-70 4 -129 4h-131q-86 0 -130 -48t-54 -122h-21l21 197q53 2 102 2h100q86 0 164 -2t164 -2q29 0 57.5 1t63.5 1l-506 -854q63 -2 137 -3t146 -1q92 0 143 54t59 138h21l-17 -219q-47 -2 -96 -2h-96q-88 0 -184.5 1t-184.5 1h-42.5t-43 -1t-36 -1h-21.5z " />
<glyph unicode="{" horiz-adv-x="907" d="M205 461v20h18q29 0 57.5 10.5t51 32t36 55t13.5 80.5v457q0 47 10 92t43 81t95.5 57.5t168.5 21.5h66v-22h-27q-106 0 -154 -60.5t-48 -183.5v-377q0 -29 -5.5 -66.5t-25 -73.5t-56 -68t-100.5 -48q63 -14 100 -44t56.5 -66.5t25 -74.5t5.5 -67v-379q0 -127 50 -185.5 t156 -58.5h23v-22h-66q-106 0 -168.5 21.5t-95.5 57.5t-43 81t-10 92v459q0 47 -13.5 80.5t-36 55t-51 32t-57.5 10.5h-18z" />
<glyph unicode="|" horiz-adv-x="804" d="M348 -428v1796h109v-1796h-109z" />
<glyph unicode="}" horiz-adv-x="907" d="M143 -406h23q106 0 156.5 58.5t50.5 185.5v379q0 29 5 67t24.5 74.5t56.5 66.5t100 44q-63 16 -100 48t-56.5 68t-24.5 73.5t-5 66.5v377q0 123 -48.5 183.5t-154.5 60.5h-27v22h66q106 0 168.5 -21.5t95.5 -57.5t43 -81t10 -92v-457q0 -47 13.5 -80.5t36 -55t51 -32 t57.5 -10.5h18v-20h-18q-59 0 -108.5 -42t-49.5 -136v-459q0 -47 -10 -92t-43 -81t-95.5 -57.5t-168.5 -21.5h-66v22z" />
<glyph unicode="~" horiz-adv-x="1081" d="M123 608q14 25 36.5 61t56.5 69.5t77 57t98 23.5q47 0 93 -15.5t90 -33.5t86 -33.5t81 -15.5q66 0 113 26.5t86 88.5l18 -13q-47 -94 -119.5 -149.5t-150.5 -55.5q-47 0 -93 14.5t-92 33t-91 33t-88 14.5q-47 0 -94.5 -22.5t-88.5 -94.5z" />
<glyph unicode="&#xa1;" horiz-adv-x="647" d="M205 858q0 49 34.5 84t84.5 35q49 0 83.5 -35t34.5 -84t-34.5 -84t-83.5 -35t-84 35t-35 84zM215 -295q0 35 7 83t24 130l6 35q10 51 20.5 112.5t19.5 135t14 163t5 197.5v64h25v-64q0 -109 5 -198t14.5 -162.5t19.5 -135t20 -112.5l6 -35q16 -82 23.5 -130t7.5 -83 q0 -80 -32.5 -117t-75.5 -37t-76 37t-33 117z" />
<glyph unicode="&#xa2;" horiz-adv-x="1028" d="M123 668q0 106 40 195t109.5 152.5t160.5 99.5t196 36q33 0 76 -6l96 241h49l-98 -249q49 -14 88 -43t39 -82q0 -29 -16.5 -52.5t-55.5 -23.5q-29 0 -49.5 22.5t-20.5 59.5q0 16 3 31.5t3 17.5q0 10 -12 20l-295 -747q76 -70 191 -70q49 0 90 11.5t73.5 30t57 39 t43.5 38.5l14 -14q-49 -57 -129 -106.5t-180 -49.5q-49 0 -98 8.5t-97 24.5l-108 -275h-49l114 291q-100 47 -167.5 144.5t-67.5 255.5zM317 682q0 -100 21.5 -176t62.5 -129l289 731q-35 12 -61 12q-86 0 -145.5 -39t-96.5 -102.5t-53.5 -141t-16.5 -155.5z" />
<glyph unicode="&#xa3;" horiz-adv-x="1138" d="M70 113q0 68 43 113.5t125 45.5q51 0 104 -16t92 -35q4 12 7 36t3 81q0 86 -26.5 175t-46.5 155l-11 32h-239v39h225q-8 27 -17.5 62t-16.5 71.5t-12 74.5t-5 69q0 174 104.5 280.5t298.5 106.5q39 0 87.5 -9.5t91.5 -30t71.5 -53t28.5 -81.5q0 -53 -26.5 -73.5 t-55.5 -20.5q-27 0 -49.5 19.5t-22.5 55.5q0 39 8.5 57.5t8.5 28.5q0 14 -12.5 27.5t-33 25t-45 17.5t-49.5 6q-55 0 -99 -20.5t-74.5 -54t-47 -78.5t-16.5 -97q0 -53 18.5 -142t57.5 -241h311v-39h-301q10 -37 20.5 -98t10.5 -121q0 -86 -13.5 -146.5t-50.5 -139.5 q27 -10 66 -22.5t79.5 -23t81.5 -17.5t74 -7q104 0 168 48t66 116h18v-25q0 -53 -13.5 -104t-44 -93t-79.5 -68t-121 -26q-86 0 -168 37t-149 84l-29 21q-16 -23 -39 -48.5t-52.5 -47t-67.5 -36t-83 -14.5q-68 0 -110.5 41t-42.5 103zM100 115q0 -14 6.5 -33t19.5 -34 t35.5 -26.5t57.5 -11.5q68 0 120.5 41t72.5 96q-66 47 -105 64.5t-71 17.5q-68 0 -102 -34.5t-34 -79.5z" />
<glyph unicode="&#xa4;" horiz-adv-x="1220" d="M53 1186l64 63l178 -178q66 53 143.5 85t169.5 32q90 0 170 -32t144 -85l180 180l63 -63l-180 -178q51 -66 81 -144t30 -168q0 -88 -31 -165.5t-84 -143.5l182 -176l-63 -63l-180 178q-63 -53 -142.5 -83t-169.5 -30t-166.5 29.5t-142.5 81.5l-178 -179l-64 64l181 176 q-53 63 -84 142t-31 169t29.5 168t83.5 144zM227 698q0 -78 30 -146.5t82 -120.5t121.5 -82t147.5 -30q80 0 149.5 30t122 82t82 121t29.5 146q0 80 -29.5 150t-82 122t-122 82.5t-149.5 30.5q-78 0 -147.5 -30.5t-121.5 -82.5t-82 -122t-30 -150z" />
<glyph unicode="&#xa5;" horiz-adv-x="1138" d="M-20 1350v20q57 0 94 -1t63.5 -3t48 -3t47.5 -1q27 0 50.5 1t51 3t63.5 3t91 1v-20q-18 0 -38.5 -2t-37 -9.5t-27.5 -21.5t-11 -41q0 -23 10 -50.5t23 -56.5l215 -483h43l237 479q14 29 21.5 52.5t7.5 50.5q0 45 -35 62.5t-88 19.5v20q43 0 68.5 -1t44 -1t33 -1t34.5 -1 t33.5 1t31 1t41 1t64.5 1v-20q-78 0 -115.5 -40t-72.5 -108l-256 -516h221v-39h-242l-22 -47v-100h264v-39h-264v-307q0 -43 13 -69t35.5 -40t52.5 -19.5t63 -5.5v-20q-61 0 -98.5 1t-64 2t-50 2t-56.5 1q-35 0 -57.5 -1t-49 -2t-63.5 -2t-98 -1v20q33 0 62.5 5.5t52 19.5 t36 40t13.5 69v307h-277v39h277v57l-39 90h-238v39h220l-228 496q-37 80 -79 124t-119 44z" />
<glyph unicode="&#xa6;" horiz-adv-x="804" d="M348 279h109v-707h-109v707zM348 662v706h109v-706h-109z" />
<glyph unicode="&#xa7;" horiz-adv-x="1056" d="M123 551q0 37 10 76t32.5 73.5t58.5 63.5t85 47q-47 43 -73.5 84t-41 78t-17.5 66.5t-3 47.5q0 61 20.5 118t63.5 100t108.5 68.5t153.5 25.5q61 0 124 -11.5t122 -52.5q35 -23 63.5 -65.5t28.5 -91.5q0 -43 -27.5 -84t-76.5 -41q-39 0 -63.5 24.5t-24.5 63.5 q0 20 8 42.5t19.5 42t19.5 33t8 17.5q0 29 -52.5 60.5t-144.5 31.5q-76 0 -125 -21.5t-78.5 -52t-42 -66.5t-12.5 -65q0 -51 31 -94t76 -79t96 -64.5t90 -48.5q66 -35 132.5 -75t120.5 -90t88 -113.5t34 -145.5q0 -47 -14.5 -87t-37 -74t-51 -60.5t-57.5 -47.5 q20 -18 46 -43.5t46.5 -59.5t34.5 -76t14 -91q0 -61 -24.5 -122.5t-73.5 -112t-122.5 -81t-172.5 -30.5q-80 0 -152.5 20.5t-142.5 67.5q-37 25 -66.5 68t-29.5 96q0 25 8 48t23.5 43.5t36 33t45.5 12.5q37 0 64.5 -24.5t27.5 -65.5q0 -27 -11.5 -50.5t-23.5 -41 t-23.5 -29.5t-11.5 -18q0 -25 20.5 -47.5t55.5 -41t82 -29.5t100 -11q63 0 116.5 18t92.5 49t61.5 72t22.5 88q0 53 -24.5 95t-66.5 77t-98.5 65.5t-119.5 63.5q-72 37 -140.5 76t-123 88t-88 111.5t-33.5 148.5zM199 625q0 -37 15 -66t40 -51.5t55.5 -42t63.5 -37.5 l233 -133q49 -29 85 -52.5t57 -39.5q53 37 83.5 86t30.5 104q0 33 -20.5 63.5t-50 56.5t-64.5 46.5t-63 36.5l-148 80q-47 27 -94 56.5t-86 58.5q-70 -18 -103.5 -69.5t-33.5 -96.5z" />
<glyph unicode="&#xa8;" horiz-adv-x="716" d="M82 1219q0 47 30.5 77.5t77.5 30.5t78 -30.5t31 -77.5t-30.5 -78t-78.5 -31q-47 0 -77.5 31t-30.5 78zM418 1219q0 47 30.5 77.5t77.5 30.5t78 -30.5t31 -77.5t-31 -78t-78 -31t-77.5 31t-30.5 78z" />
<glyph unicode="&#xa9;" horiz-adv-x="1595" d="M102 682q0 143 55.5 269t150.5 220.5t221 149.5t270 55q143 0 269 -55t220 -149.5t149.5 -220.5t55.5 -269t-55.5 -269t-149.5 -221.5t-220 -150.5t-269 -55t-269.5 55t-221.5 150.5t-150.5 221.5t-55.5 269zM170 682q0 -129 50 -243.5t135 -199.5t200 -135.5t244 -50.5 t242.5 50.5t199.5 135.5t135 199.5t49 243.5t-49 242.5t-135 199.5t-199.5 135.5t-242.5 49.5t-244 -49.5t-200 -135.5t-135 -199.5t-50 -242.5zM444 670q0 82 27 154.5t75 127t116.5 86t152.5 31.5q39 0 72 -8t60.5 -17.5t48 -17.5t36.5 -8t20.5 14.5t14.5 36.5h18v-235 h-18q-10 96 -72.5 145t-154.5 49q-47 0 -89 -20.5t-75 -62.5t-51.5 -106.5t-18.5 -152.5q0 -98 20.5 -162.5t53.5 -104.5t75 -56.5t85 -16.5q63 0 122.5 26.5t114.5 92.5l17 -12q-41 -59 -112 -106.5t-165 -47.5q-84 0 -152.5 26.5t-117.5 76t-76 118t-27 150.5z" />
<glyph unicode="&#xaa;" horiz-adv-x="655" d="M0 621v55h602v-55h-602zM43 924q0 43 23.5 74.5t60.5 56t79 42t79 33.5q33 14 57.5 27.5t24.5 24.5v47q0 68 -27 98.5t-84 30.5q-18 0 -38.5 -3t-38 -10.5t-29 -17.5t-11.5 -22q0 -2 4 -12.5t4 -32.5q0 -16 -11 -31t-34 -15q-16 0 -33.5 10.5t-17.5 49.5q0 27 19.5 47 t50.5 34.5t66.5 20.5t68.5 6h8q51 -2 99.5 -12t80.5 -41q39 -35 39 -100v-295q0 -20 6.5 -47t36.5 -27q27 0 41 27l13 -10q-4 -6 -11.5 -18.5t-20.5 -25t-31.5 -21.5t-43.5 -9q-35 0 -64.5 24.5t-37.5 59.5q-45 -39 -87 -61.5t-102 -22.5q-55 0 -97 28.5t-42 92.5zM154 950 q0 -37 20.5 -65.5t61.5 -28.5q37 0 72.5 20.5t58.5 43.5v223q-35 -20 -72 -39t-70 -39q-72 -47 -71 -115z" />
<glyph unicode="&#xab;" horiz-adv-x="964" d="M123 457q23 18 66.5 51t94 73t99.5 84t82 80q4 4 9 11.5t9 7.5q12 0 13 -19q0 -18 -17.5 -46.5t-42 -59.5t-50.5 -60.5t-42 -50.5l-59 -71l59 -72q16 -20 42 -50t50.5 -60.5t42 -59.5t17.5 -47t-13 -18q-4 0 -9 7t-9 11q-33 39 -83 83t-100.5 84t-94.5 72.5t-64 49.5z M469 457q23 18 67 51t94 73t99 84t82 80q4 4 9 11.5t9 7.5q12 0 13 -19q0 -18 -17.5 -46.5t-42 -59.5t-50 -60.5t-42.5 -50.5l-59 -71l59 -72q16 -20 42 -50t50.5 -60.5t42 -59.5t17.5 -47t-13 -18q-4 0 -9 7t-9 11q-33 39 -83 83t-100 84t-94.5 72.5t-64.5 49.5z" />
<glyph unicode="&#xac;" horiz-adv-x="983" d="M61 563v74h861v-522h-197v448h-664z" />
<glyph unicode="&#xad;" d="M82 483v101h424v-101h-424z" />
<glyph unicode="&#xae;" horiz-adv-x="1595" d="M102 682q0 143 55.5 269t150.5 220.5t221 149.5t270 55q143 0 269 -55t220 -149.5t149.5 -220.5t55.5 -269t-55.5 -269t-149.5 -221.5t-220 -150.5t-269 -55t-269.5 55t-221.5 150.5t-150.5 221.5t-55.5 269zM170 682q0 -129 50 -243.5t135 -199.5t200 -135.5t244 -50.5 t242.5 50.5t199.5 135.5t135 199.5t49 243.5t-49 242.5t-135 199.5t-199.5 135.5t-242.5 49.5t-244 -49.5t-200 -135.5t-135 -199.5t-50 -242.5zM459 1036v19h346q88 0 146.5 -14.5t92 -41t48 -61.5t14.5 -76q0 -78 -52.5 -125t-123.5 -59l170 -281q14 -23 37.5 -46 t70.5 -23v-19h-45t-31.5 1t-25.5 1h-29q-23 0 -40 -1t-46 -1l-213 357h-80v-250q0 -47 19.5 -66.5t79.5 -19.5v-21q-61 0 -93 2t-73 2q-20 0 -36.5 -1t-35 -1t-41 -1t-53.5 -1v21q59 0 75.5 20.5t16.5 65.5v524q0 47 -19.5 71.5t-78.5 24.5zM698 698h103q18 0 45.5 3.5 t53.5 17.5t45.5 45t19.5 86q0 80 -39 126t-125 46h-103v-324z" />
<glyph unicode="&#xaf;" horiz-adv-x="786" d="M123 1186v69h541v-69h-541z" />
<glyph unicode="&#xb0;" horiz-adv-x="659" d="M123 1241q0 45 15.5 83t43 65.5t65.5 44t81 16.5q90 0 149.5 -59.5t59.5 -149.5q0 -43 -16.5 -81t-44 -65.5t-65.5 -43t-83 -15.5q-43 0 -81 15.5t-65.5 43t-43 65.5t-15.5 81zM193 1243q0 -55 39.5 -95t97.5 -40q59 0 99 40t40 95q0 59 -40 99t-99 40q-57 0 -97 -40 t-40 -99z" />
<glyph unicode="&#xb1;" horiz-adv-x="1171" d="M123 254v76h926v-76h-926zM125 815v78h420v395h80v-395h422v-78h-422v-395h-80v395h-420z" />
<glyph unicode="&#xb2;" horiz-adv-x="634" d="M0 545q35 55 66.5 95t66.5 77q74 74 127 128t88 101t52.5 95.5t17.5 113.5q0 82 -35 141.5t-117 59.5q-61 0 -105 -42t-44 -104q0 -55 33.5 -86.5t74.5 -31.5q25 0 47.5 14t38.5 37q-4 -59 -43 -92t-94 -33q-41 0 -70.5 14.5t-49 38t-29 50t-9.5 50.5q0 33 14.5 71 t47.5 69.5t84 52t123 20.5q78 0 130 -21.5t84.5 -56t46 -76.5t13.5 -83q0 -61 -23.5 -107.5t-64.5 -85.5t-95 -77.5t-116 -85.5q-33 -25 -65.5 -54.5t-61.5 -68.5h410l-39 -191h-21l4 58q0 8 -4 9t-8 1h-475z" />
<glyph unicode="&#xb3;" horiz-adv-x="634" d="M0 641q0 23 17.5 40t39.5 17q16 0 32.5 -9t27.5 -23q16 -23 20 -51.5t13 -34.5q14 -10 30.5 -15.5t44.5 -5.5q61 0 96 23.5t52.5 58.5t21.5 75t4 70q0 113 -33.5 156t-74.5 43q-29 0 -51.5 -12t-38.5 -29q-16 -14 -32.5 -28.5t-31.5 -14.5q-18 0 -18 19q0 10 12 22t45 29 q27 14 59.5 32.5t59.5 46t45 64.5t18 86q0 59 -29.5 105.5t-90.5 46.5t-90 -38t-29 -79q0 -29 21.5 -54.5t56.5 -25.5q29 0 47 10.5t35 24.5q-10 -45 -40 -74t-81 -29q-61 0 -95 35t-34 82q0 76 68.5 128t178.5 52q111 0 162 -50t51 -115q0 -45 -20 -79t-48 -58.5t-58.5 -41 t-49.5 -24.5h15q45 0 85 -13.5t70.5 -39t48 -63.5t17.5 -85q0 -68 -30 -122t-78 -91t-110.5 -56.5t-127.5 -19.5q-59 0 -104.5 13.5t-71.5 42.5q-27 31 -27 59z" />
<glyph unicode="&#xb4;" horiz-adv-x="673" d="M133 1055l281 319q18 20 35.5 30.5t39.5 10.5q27 0 44.5 -18.5t17.5 -40.5q0 -41 -27.5 -64.5t-56.5 -42.5l-305 -194h-29z" />
<glyph unicode="&#xb5;" horiz-adv-x="1087" d="M82 -262q0 18 3 39.5t9 59.5t14.5 97.5t18.5 149.5q14 127 19.5 234.5t5.5 232.5v387h165v-635q0 -43 3.5 -91t17.5 -87t45 -64.5t88 -25.5q35 0 68.5 13t63.5 34.5t53.5 47.5t39.5 50v758h168v-715q0 -18 1 -42.5t7.5 -48t18.5 -40t37 -16.5q10 0 24.5 2t36.5 10l17 6 v-20q-72 -37 -111 -56.5t-57.5 -28.5t-23.5 -11.5t-7 -2.5q-27 0 -46.5 17.5t-31.5 43t-18 53.5t-9 50q-72 -92 -134 -131t-140 -39q-106 0 -173 50.5t-83 127.5v-63q0 -35 4 -76t10 -65q16 -74 28.5 -119t12.5 -92t-19.5 -75t-51.5 -28q-33 0 -53.5 29t-20.5 80z" />
<glyph unicode="&#xb6;" horiz-adv-x="1040" d="M72 977q0 59 16 126.5t60.5 126t123 96.5t201.5 38h383v-21q-33 0 -62.5 -5t-52 -19t-36 -40t-13.5 -69v-1466q0 -43 13.5 -68.5t36 -40t52 -19.5t62.5 -5v-21h-252v1739h-98v-1739h-252v21q33 0 62.5 5t52 19.5t36 40t13.5 68.5v897q-41 0 -99.5 11.5t-113.5 47t-94 102 t-39 175.5z" />
<glyph unicode="&#xb7;" horiz-adv-x="518" d="M143 453q0 49 34 82.5t81 33.5q49 0 83 -33.5t34 -82.5q0 -47 -34 -81t-83 -34q-47 0 -81 34t-34 81z" />
<glyph unicode="&#xb8;" horiz-adv-x="442" d="M61 -203q0 16 9.5 29.5t31.5 13.5q31 0 45 -37q8 -23 8.5 -38t4.5 -19q18 -18 57 -18q41 0 58.5 29.5t17.5 60.5q0 33 -20.5 63.5t-82.5 30.5h-16t-29 -4l33 92h39l-20 -57h12q90 0 131 -39t41 -86q0 -18 -8 -40t-26.5 -38t-50.5 -27.5t-77 -11.5q-63 0 -110.5 26.5 t-47.5 69.5z" />
<glyph unicode="&#xb9;" horiz-adv-x="634" d="M0 1315v18q53 4 92 11.5t71 16.5t59.5 20.5t58.5 23.5v-684q0 -39 2 -67.5t13 -48t35.5 -29t69.5 -9.5v-22q-45 0 -73.5 1t-48 2t-34 2t-32.5 1q-20 0 -34.5 -1t-33 -2t-46 -2t-72.5 -1v22q43 0 67.5 9.5t36.5 29t15.5 48t3.5 67.5v457q0 49 -2.5 76.5t-13.5 41 t-34.5 16.5t-64.5 3h-35z" />
<glyph unicode="&#xba;" horiz-adv-x="655" d="M0 625v51h621v-51h-621zM2 1100q0 63 25.5 115.5t68.5 89t98.5 57t114.5 20.5q61 0 116.5 -20.5t98.5 -58t68.5 -91t25.5 -116.5q0 -66 -24.5 -119t-67.5 -92t-99 -60.5t-118 -21.5q-61 0 -117.5 22.5t-98.5 62.5t-66.5 94t-24.5 118zM143 1104q0 -86 17.5 -138.5t43 -81 t53.5 -38.5t48 -10q25 0 54.5 9t55 36.5t43 76.5t17.5 129q0 82 -18.5 134.5t-44 80t-53 38t-48.5 10.5q-16 0 -43.5 -7.5t-55.5 -33t-48.5 -74.5t-20.5 -131z" />
<glyph unicode="&#xbb;" horiz-adv-x="964" d="M123 168q0 18 17.5 47t42 59.5t50 60.5t41.5 50l58 74l-58 69q-16 20 -41.5 50t-50 61t-42 59.5t-17.5 46.5t12 19q4 0 9.5 -7t9.5 -12q33 -37 82 -80.5t99 -83.5t94 -73t67 -51q-20 -16 -64.5 -49t-94.5 -73t-100.5 -84t-82.5 -83q-4 -4 -9.5 -11t-9.5 -7q-12 0 -12 18z M469 168q0 18 17.5 47t42 59.5t50 60.5l42.5 50l57 74l-57 69q-16 20 -42 50t-50.5 61t-42 59.5t-17.5 46.5t12 19q4 0 9.5 -7t9.5 -12q33 -37 82 -80.5t99 -83.5t94 -73t67 -51q-20 -16 -64.5 -49t-94.5 -73t-100.5 -84t-82.5 -83q-4 -4 -9.5 -11t-9.5 -7q-12 0 -12 18z " />
<glyph unicode="&#xbc;" horiz-adv-x="1576" d="M0 1315v18q53 4 92 11.5t71 16.5t59.5 20.5t58.5 23.5v-684q0 -39 2 -67.5t13 -48t35.5 -29t69.5 -9.5v-22q-45 0 -73.5 1t-48 2t-34 2t-32.5 1q-20 0 -34.5 -1t-33 -2t-46 -2t-72.5 -1v22q43 0 67.5 9.5t36.5 29t15.5 48t3.5 67.5v457q0 49 -2.5 76.5t-13.5 41 t-34.5 16.5t-64.5 3h-35zM217 -33l850 1434h61l-852 -1434h-59zM852 262v33l408 549h38v-537h136v-45h-136v-86q0 -39 2.5 -67.5t13.5 -48t35.5 -28.5t69.5 -9v-23q-45 0 -72.5 1t-47 2t-33 2t-31.5 1q-20 0 -33.5 -1t-32 -2t-45 -2t-71.5 -1v23q43 0 67.5 9t36.5 28.5 t15.5 48t3.5 67.5v86h-324zM903 307h273v367z" />
<glyph unicode="&#xbd;" horiz-adv-x="1576" d="M0 1315v18q53 4 92 11.5t71 16.5t59.5 20.5t58.5 23.5v-684q0 -39 2 -67.5t13 -48t35.5 -29t69.5 -9.5v-22q-45 0 -73.5 1t-48 2t-34 2t-32.5 1q-20 0 -34.5 -1t-33 -2t-46 -2t-72.5 -1v22q43 0 67.5 9.5t36.5 29t15.5 48t3.5 67.5v457q0 49 -2.5 76.5t-13.5 41 t-34.5 16.5t-64.5 3h-35zM219 -33l850 1434h61l-851 -1434h-60zM862 0q35 55 67 95t66 77q74 74 127.5 128t88 101.5t52 95.5t17.5 113q0 35 -7 71t-24.5 64.5t-46 47t-72.5 18.5q-63 0 -107 -42t-44 -103q0 -55 34 -87t74 -32q25 0 47.5 14t39.5 37q-4 -59 -43 -92t-95 -33 q-41 0 -70.5 14.5t-49 38t-28.5 50t-9 51.5q0 33 14 70.5t47 69.5t84 52.5t123 20.5q78 0 130 -21.5t85 -56.5t46 -77t13 -83q0 -61 -23.5 -107t-64.5 -85t-95 -78t-116 -86q-33 -25 -65.5 -54.5t-61.5 -68.5h410l-39 -191h-20l4 58q0 8 -4.5 9t-8.5 1h-475z" />
<glyph unicode="&#xbe;" horiz-adv-x="1576" d="M0 641q0 23 17.5 40t39.5 17q16 0 32.5 -9t27.5 -23q16 -23 20 -51.5t13 -34.5q14 -10 30.5 -15.5t44.5 -5.5q61 0 96 23.5t52.5 58.5t21.5 75t4 70q0 113 -33.5 156t-74.5 43q-29 0 -51.5 -12t-38.5 -29q-16 -14 -32.5 -28.5t-31.5 -14.5q-18 0 -18 19q0 10 12 22t45 29 q27 14 59.5 32.5t59.5 46t45 64.5t18 86q0 59 -29.5 105.5t-90.5 46.5t-90 -38t-29 -79q0 -29 21.5 -54.5t56.5 -25.5q29 0 47 10.5t35 24.5q-10 -45 -40 -74t-81 -29q-61 0 -95 35t-34 82q0 76 68.5 128t178.5 52q111 0 162 -50t51 -115q0 -45 -20 -79t-48 -58.5t-58.5 -41 t-49.5 -24.5h15q45 0 85 -13.5t70.5 -39t48 -63.5t17.5 -85q0 -68 -30 -122t-78 -91t-110.5 -56.5t-127.5 -19.5q-59 0 -104.5 13.5t-71.5 42.5q-27 31 -27 59zM305 -33l850 1434h62l-852 -1434h-60zM938 260v33l408 549h38v-537h136v-45h-136v-86q0 -39 2.5 -67.5t13.5 -48 t35.5 -29t69.5 -9.5v-22q-45 0 -72.5 1t-47 2t-33 2t-31.5 1q-20 0 -33.5 -1t-32 -2t-45 -2t-71.5 -1v22q43 0 67.5 9.5t36.5 29t15.5 48t3.5 67.5v86h-324zM989 305h273v367z" />
<glyph unicode="&#xbf;" horiz-adv-x="811" d="M123 51q0 121 53 201t141 117q78 33 172 32h25.5t26.5 -2v213h34v-391h-75q-57 0 -115.5 -7t-106 -30.5t-77 -68.5t-29.5 -123q0 -53 23.5 -112.5t63.5 -109t94.5 -82t113.5 -32.5q18 0 35 6q2 2 14 12.5t29.5 21.5t40 20.5t47.5 9.5q45 0 72 -35q14 -20 14 -49 q0 -27 -17.5 -52.5t-62.5 -38.5q-16 -4 -31.5 -6t-32.5 -2q-70 0 -140.5 35t-123.5 80q-82 70 -135 175.5t-53 217.5zM436 856q0 49 35 84t84 35t84 -35t35 -84t-35 -84t-84 -35t-84 35t-35 84z" />
<glyph unicode="&#xc0;" horiz-adv-x="1339" d="M-10 0v20q147 0 205 154l458 1223h39l463 -1213q35 -90 78 -127t117 -37v-20q-61 0 -97 1t-62 2t-47.5 2t-51.5 1q-31 0 -52.5 -1t-47 -2t-64.5 -2t-105 -1v20q25 0 48.5 3.5t44 12.5t33 26.5t12.5 43.5q0 23 -7.5 47.5t-15.5 45.5l-133 350h-430l-135 -373 q-12 -37 -13 -63q0 -29 12.5 -47.5t31 -28.5t42 -13.5t45.5 -3.5v-20q-43 0 -69.5 1t-45 2t-33.5 2t-36 1q-23 0 -38 -1t-33.5 -2t-45 -2t-67.5 -1zM242 1763q0 35 20.5 54.5t51.5 19.5q23 0 40 -10t35 -27l340 -315h-32l-336 166q-20 10 -42 20t-38.5 22.5t-27.5 29 t-11 40.5zM387 586h406l-197 555z" />
<glyph unicode="&#xc1;" horiz-adv-x="1339" d="M-10 0v20q147 0 205 154l458 1223h39l463 -1213q35 -90 78 -127t117 -37v-20q-61 0 -97 1t-62 2t-47.5 2t-51.5 1q-31 0 -52.5 -1t-47 -2t-64.5 -2t-105 -1v20q25 0 48.5 3.5t44 12.5t33 26.5t12.5 43.5q0 23 -7.5 47.5t-15.5 45.5l-133 350h-430l-135 -373 q-12 -37 -13 -63q0 -29 12.5 -47.5t31 -28.5t42 -13.5t45.5 -3.5v-20q-43 0 -69.5 1t-45 2t-33.5 2t-36 1q-23 0 -38 -1t-33.5 -2t-45 -2t-67.5 -1zM387 586h406l-197 555zM631 1485l340 315q10 8 18 16.5t27 14.5q18 6 41 6q29 0 45 -22.5t16 -51.5q0 -25 -11 -41 t-27.5 -28.5t-38 -22.5t-42.5 -20l-335 -166h-33z" />
<glyph unicode="&#xc2;" horiz-adv-x="1339" d="M-10 0v20q147 0 205 154l458 1223h39l463 -1213q35 -90 78 -127t117 -37v-20q-61 0 -97 1t-62 2t-47.5 2t-51.5 1q-31 0 -52.5 -1t-47 -2t-64.5 -2t-105 -1v20q25 0 48.5 3.5t44 12.5t33 26.5t12.5 43.5q0 23 -7.5 47.5t-15.5 45.5l-133 350h-430l-135 -373 q-12 -37 -13 -63q0 -29 12.5 -47.5t31 -28.5t42 -13.5t45.5 -3.5v-20q-43 0 -69.5 1t-45 2t-33.5 2t-36 1q-23 0 -38 -1t-33.5 -2t-45 -2t-67.5 -1zM322 1485l307 332h90l305 -332h-57l-293 192l-295 -192h-57zM387 586h406l-197 555z" />
<glyph unicode="&#xc3;" horiz-adv-x="1339" d="M-10 0v20q147 0 205 154l458 1223h39l463 -1213q35 -90 78 -127t117 -37v-20q-61 0 -97 1t-62 2t-47.5 2t-51.5 1q-31 0 -52.5 -1t-47 -2t-64.5 -2t-105 -1v20q25 0 48.5 3.5t44 12.5t33 26.5t12.5 43.5q0 23 -7.5 47.5t-15.5 45.5l-133 350h-430l-135 -373 q-12 -37 -13 -63q0 -29 12.5 -47.5t31 -28.5t42 -13.5t45.5 -3.5v-20q-43 0 -69.5 1t-45 2t-33.5 2t-36 1q-23 0 -38 -1t-33.5 -2t-45 -2t-67.5 -1zM371 1561q14 88 66.5 140t123.5 52q37 0 79 -16.5t84 -35t81 -34.5t70 -16t56.5 21.5t35.5 70.5h22q-12 -86 -57 -142.5 t-117 -56.5q-41 0 -85 16.5t-85 35t-79 35t-68 16.5q-41 0 -67.5 -25t-33.5 -61h-26zM387 586h406l-197 555z" />
<glyph unicode="&#xc4;" horiz-adv-x="1339" d="M-10 0v20q147 0 205 154l458 1223h39l463 -1213q35 -90 78 -127t117 -37v-20q-61 0 -97 1t-62 2t-47.5 2t-51.5 1q-31 0 -52.5 -1t-47 -2t-64.5 -2t-105 -1v20q25 0 48.5 3.5t44 12.5t33 26.5t12.5 43.5q0 23 -7.5 47.5t-15.5 45.5l-133 350h-430l-135 -373 q-12 -37 -13 -63q0 -29 12.5 -47.5t31 -28.5t42 -13.5t45.5 -3.5v-20q-43 0 -69.5 1t-45 2t-33.5 2t-36 1q-23 0 -38 -1t-33.5 -2t-45 -2t-67.5 -1zM387 586h406l-197 555zM387 1651q0 39 29.5 75.5t83.5 36.5q29 0 50 -11t34.5 -28.5t20.5 -37t7 -35.5q0 -41 -31.5 -77 t-80.5 -36q-45 0 -79 34t-34 79zM747 1651q0 39 30 75.5t83 36.5q29 0 50.5 -11t34.5 -28.5t20.5 -37t7.5 -35.5q0 -41 -32 -77t-81 -36q-45 0 -79 34t-34 79z" />
<glyph unicode="&#xc5;" horiz-adv-x="1339" d="M-10 0v20q147 0 205 154l458 1223h39l463 -1213q35 -90 78 -127t117 -37v-20q-61 0 -97 1t-62 2t-47.5 2t-51.5 1q-31 0 -52.5 -1t-47 -2t-64.5 -2t-105 -1v20q25 0 48.5 3.5t44 12.5t33 26.5t12.5 43.5q0 23 -7.5 47.5t-15.5 45.5l-133 350h-430l-135 -373 q-12 -37 -13 -63q0 -29 12.5 -47.5t31 -28.5t42 -13.5t45.5 -3.5v-20q-43 0 -69.5 1t-45 2t-33.5 2t-36 1q-23 0 -38 -1t-33.5 -2t-45 -2t-67.5 -1zM387 586h406l-197 555zM488 1651q0 78 53 128t137 50q86 0 140.5 -50t54.5 -128t-54.5 -128t-140.5 -50q-84 0 -137 50 t-53 128zM547 1651q0 -29 12.5 -53.5t31 -41t42 -25.5t47.5 -9q49 0 92 35t43 94t-43 94t-92 35q-47 0 -90 -36t-43 -93z" />
<glyph unicode="&#xc6;" horiz-adv-x="1761" d="M-25 0v20q78 0 123 40t84 114l549 1040q16 33 17 60q0 29 -14.5 44t-37 22.5t-51.5 8.5t-59 1v20q61 0 104 -1t76 -2t61.5 -2t61.5 -1q70 0 182.5 6t235.5 6q80 0 144.5 -2t145.5 -4l13 -266h-21q-8 84 -26.5 132t-57.5 71.5t-99 28.5t-153 5q-18 0 -42.5 -1t-51 -2 t-49.5 -3t-37 -4q-47 -6 -47 -55v-555h139q92 0 136.5 46t44.5 130h20q0 -47 -1 -78t-2 -51t-2 -34.5t-1 -31.5q0 -16 1 -29.5t2 -32.5t2 -49t1 -77h-20q0 80 -44.5 126t-136.5 46h-139v-438q0 -74 16.5 -118t52 -65.5t93 -27.5t141.5 -6q82 0 146.5 5t110.5 30.5t71.5 77 t30.5 143.5h22l-16 -287q-92 -2 -164 -3t-156 -1q-174 0 -280.5 5t-171.5 5q-33 0 -56.5 -1t-50.5 -2t-63.5 -2t-98.5 -1v20q33 0 62.5 5.5t52.5 19.5t36 40t13 69v522h-328l-262 -500q-18 -37 -18 -65q0 -53 41 -70.5t94 -20.5v-20q-39 0 -64.5 1t-44 2t-35 2t-34.5 1 q-23 0 -40 -1t-36.5 -2t-47.5 -2t-67 -1zM508 713h309v577z" />
<glyph unicode="&#xc7;" horiz-adv-x="1394" d="M92 688q0 145 54.5 273.5t150.5 224.5t226 152.5t284 56.5q115 0 216 -34t189 -93l37 73h21q0 -39 -1 -63.5t-1 -44t-1 -36.5t-1 -40q0 -29 1 -48t3 -39.5t3 -49.5t1 -74h-25q-12 188 -126.5 301t-319.5 113q-82 0 -167 -45t-153.5 -133t-111.5 -217t-43 -297 q0 -100 24.5 -215t80.5 -213.5t147.5 -163t224.5 -64.5q100 0 184 32t144.5 92.5t95.5 144.5t39 188h24q-2 -96 -4 -144.5t-2 -86.5q0 -41 2 -87.5t4 -121.5h-20l-49 84q-18 -14 -53 -37t-87.5 -45.5t-122 -39t-157.5 -16.5h-25l-18 -71h12q117 0 173 -46t56 -108 q0 -25 -10 -50.5t-31.5 -46t-57.5 -34.5t-87 -16h-12q-80 0 -140.5 33.5t-60.5 87.5q0 23 14.5 38t34.5 15q18 0 34.5 -13.5t23.5 -31.5q10 -29 10 -47.5t6 -24.5q23 -23 72 -22q49 0 71.5 37.5t22.5 72.5q0 41 -31 79t-110 38q-8 0 -18.5 -1t-39.5 -5l37 121 q-139 10 -256 60t-202 139t-132 217t-47 292z" />
<glyph unicode="&#xc8;" horiz-adv-x="1183" d="M76 0v20q33 0 62.5 5.5t52 19.5t36 40t13.5 69v1063q0 43 -13.5 68.5t-36 39.5t-52 19.5t-62.5 5.5v20q61 0 97 -1t61.5 -2t48 -2t55.5 -1q70 0 169 6t222 6q80 0 144.5 -2t146.5 -4l12 -266h-20q-6 78 -33 125t-72 71.5t-104.5 32.5t-130.5 8q-18 0 -43 -1t-49.5 -2 t-47 -3t-36.5 -4q-47 -6 -47 -55v-549h139q92 0 136 46t44 130h20q0 -47 -1 -77.5t-2 -51t-2 -35t-1 -30.5t1 -29.5t2 -33t2 -49.5t1 -77h-20q0 80 -44 126t-136 46h-139v-444q0 -74 13 -118t47 -65.5t89 -27.5t139 -6q74 0 138.5 5t113.5 29.5t81 77t40 144.5h23l-17 -287 q-92 -2 -163.5 -3t-155.5 -1q-174 0 -280.5 5t-172.5 5q-33 0 -56.5 -1t-50 -2t-63.5 -2t-98 -1zM246 1763q0 35 20.5 54.5t51.5 19.5q23 0 40 -10t35 -27l340 -315h-32l-336 166q-20 10 -42 20t-38.5 22.5t-27.5 29t-11 40.5z" />
<glyph unicode="&#xc9;" horiz-adv-x="1183" d="M76 0v20q33 0 62.5 5.5t52 19.5t36 40t13.5 69v1063q0 43 -13.5 68.5t-36 39.5t-52 19.5t-62.5 5.5v20q61 0 97 -1t61.5 -2t48 -2t55.5 -1q70 0 169 6t222 6q80 0 144.5 -2t146.5 -4l12 -266h-20q-6 78 -33 125t-72 71.5t-104.5 32.5t-130.5 8q-18 0 -43 -1t-49.5 -2 t-47 -3t-36.5 -4q-47 -6 -47 -55v-549h139q92 0 136 46t44 130h20q0 -47 -1 -77.5t-2 -51t-2 -35t-1 -30.5t1 -29.5t2 -33t2 -49.5t1 -77h-20q0 80 -44 126t-136 46h-139v-444q0 -74 13 -118t47 -65.5t89 -27.5t139 -6q74 0 138.5 5t113.5 29.5t81 77t40 144.5h23l-17 -287 q-92 -2 -163.5 -3t-155.5 -1q-174 0 -280.5 5t-172.5 5q-33 0 -56.5 -1t-50 -2t-63.5 -2t-98 -1zM430 1485l340 315q10 8 18 16.5t27 14.5q18 6 41 6q29 0 45 -22.5t16 -51.5q0 -25 -11 -41t-27.5 -28.5t-38 -22.5t-42.5 -20l-335 -166h-33z" />
<glyph unicode="&#xca;" horiz-adv-x="1183" d="M76 0v20q33 0 62.5 5.5t52 19.5t36 40t13.5 69v1063q0 43 -13.5 68.5t-36 39.5t-52 19.5t-62.5 5.5v20q61 0 97 -1t61.5 -2t48 -2t55.5 -1q70 0 169 6t222 6q80 0 144.5 -2t146.5 -4l12 -266h-20q-6 78 -33 125t-72 71.5t-104.5 32.5t-130.5 8q-18 0 -43 -1t-49.5 -2 t-47 -3t-36.5 -4q-47 -6 -47 -55v-549h139q92 0 136 46t44 130h20q0 -47 -1 -77.5t-2 -51t-2 -35t-1 -30.5t1 -29.5t2 -33t2 -49.5t1 -77h-20q0 80 -44 126t-136 46h-139v-444q0 -74 13 -118t47 -65.5t89 -27.5t139 -6q74 0 138.5 5t113.5 29.5t81 77t40 144.5h23l-17 -287 q-92 -2 -163.5 -3t-155.5 -1q-174 0 -280.5 5t-172.5 5q-33 0 -56.5 -1t-50 -2t-63.5 -2t-98 -1zM260 1485l307 332h90l305 -332h-57l-293 192l-295 -192h-57z" />
<glyph unicode="&#xcb;" horiz-adv-x="1183" d="M76 0v20q33 0 62.5 5.5t52 19.5t36 40t13.5 69v1063q0 43 -13.5 68.5t-36 39.5t-52 19.5t-62.5 5.5v20q61 0 97 -1t61.5 -2t48 -2t55.5 -1q70 0 169 6t222 6q80 0 144.5 -2t146.5 -4l12 -266h-20q-6 78 -33 125t-72 71.5t-104.5 32.5t-130.5 8q-18 0 -43 -1t-49.5 -2 t-47 -3t-36.5 -4q-47 -6 -47 -55v-549h139q92 0 136 46t44 130h20q0 -47 -1 -77.5t-2 -51t-2 -35t-1 -30.5t1 -29.5t2 -33t2 -49.5t1 -77h-20q0 80 -44 126t-136 46h-139v-444q0 -74 13 -118t47 -65.5t89 -27.5t139 -6q74 0 138.5 5t113.5 29.5t81 77t40 144.5h23l-17 -287 q-92 -2 -163.5 -3t-155.5 -1q-174 0 -280.5 5t-172.5 5q-33 0 -56.5 -1t-50 -2t-63.5 -2t-98 -1zM320 1651q0 39 29.5 75.5t83.5 36.5q29 0 50 -11t34.5 -28.5t20.5 -37t7 -35.5q0 -41 -31.5 -77t-80.5 -36q-45 0 -79 34t-34 79zM680 1651q0 39 30 75.5t83 36.5 q29 0 50.5 -11t34.5 -28.5t20.5 -37t7.5 -35.5q0 -41 -32 -77t-81 -36q-45 0 -79 34t-34 79z" />
<glyph unicode="&#xcc;" horiz-adv-x="688" d="M-61 1763q0 35 20.5 54.5t51.5 19.5q23 0 40 -10t35 -27l340 -315h-32l-336 166q-20 10 -42 20t-38.5 22.5t-27.5 29t-11 40.5zM76 0v20q33 0 62.5 5.5t52 19.5t36 40t13.5 69v1063q0 43 -13.5 68.5t-36 39.5t-52 19.5t-62.5 5.5v20q61 0 98 -1t63.5 -3t49 -3t57.5 -1 q33 0 56.5 1t50 3t63.5 3t98 1v-20q-33 0 -62.5 -5.5t-52 -19.5t-35.5 -39.5t-13 -68.5v-1063q0 -43 13 -69t35.5 -40t52.5 -19.5t62 -5.5v-20q-61 0 -98 1t-63.5 3t-50 3t-56.5 1q-35 0 -57.5 -1t-49 -3t-63.5 -3t-98 -1z" />
<glyph unicode="&#xcd;" horiz-adv-x="688" d="M76 0v20q33 0 62.5 5.5t52 19.5t36 40t13.5 69v1063q0 43 -13.5 68.5t-36 39.5t-52 19.5t-62.5 5.5v20q61 0 98 -1t63.5 -3t49 -3t57.5 -1q33 0 56.5 1t50 3t63.5 3t98 1v-20q-33 0 -62.5 -5.5t-52 -19.5t-35.5 -39.5t-13 -68.5v-1063q0 -43 13 -69t35.5 -40t52.5 -19.5 t62 -5.5v-20q-61 0 -98 1t-63.5 3t-50 3t-56.5 1q-35 0 -57.5 -1t-49 -3t-63.5 -3t-98 -1zM168 1485l340 315q10 8 18 16.5t27 14.5q18 6 41 6q29 0 45 -22.5t16 -51.5q0 -25 -11 -41t-27.5 -28.5t-38 -22.5t-42.5 -20l-335 -166h-33z" />
<glyph unicode="&#xce;" horiz-adv-x="688" d="M-6 1485l307 332h90l305 -332h-57l-293 192l-295 -192h-57zM76 0v20q33 0 62.5 5.5t52 19.5t36 40t13.5 69v1063q0 43 -13.5 68.5t-36 39.5t-52 19.5t-62.5 5.5v20q61 0 98 -1t63.5 -3t49 -3t57.5 -1q33 0 56.5 1t50 3t63.5 3t98 1v-20q-33 0 -62.5 -5.5t-52 -19.5 t-35.5 -39.5t-13 -68.5v-1063q0 -43 13 -69t35.5 -40t52.5 -19.5t62 -5.5v-20q-61 0 -98 1t-63.5 3t-50 3t-56.5 1q-35 0 -57.5 -1t-49 -3t-63.5 -3t-98 -1z" />
<glyph unicode="&#xcf;" horiz-adv-x="688" d="M53 1651q0 39 29.5 75.5t83.5 36.5q29 0 50 -11t34.5 -28.5t20.5 -37t7 -35.5q0 -41 -31.5 -77t-80.5 -36q-45 0 -79 34t-34 79zM76 0v20q33 0 62.5 5.5t52 19.5t36 40t13.5 69v1063q0 43 -13.5 68.5t-36 39.5t-52 19.5t-62.5 5.5v20q61 0 98 -1t63.5 -3t49 -3t57.5 -1 q33 0 56.5 1t50 3t63.5 3t98 1v-20q-33 0 -62.5 -5.5t-52 -19.5t-35.5 -39.5t-13 -68.5v-1063q0 -43 13 -69t35.5 -40t52.5 -19.5t62 -5.5v-20q-61 0 -98 1t-63.5 3t-50 3t-56.5 1q-35 0 -57.5 -1t-49 -3t-63.5 -3t-98 -1zM413 1651q0 39 30 75.5t83 36.5q29 0 50.5 -11 t34.5 -28.5t20.5 -37t7.5 -35.5q0 -41 -32 -77t-81 -36q-45 0 -79 34t-34 79z" />
<glyph unicode="&#xd0;" horiz-adv-x="1456" d="M76 0v20q33 0 62.5 5.5t52 19.5t36 40t13.5 69v538h-164v39h164v486q0 43 -13.5 68.5t-36 39.5t-52 19.5t-62.5 5.5v20q61 0 98 -1t64.5 -2t50 -2t57.5 -1q66 0 149 6t156 6q156 0 286 -46t225 -133t148.5 -214t53.5 -289q0 -338 -174 -518t-518 -180q-74 0 -163 5 t-163 5q-35 0 -57.5 -1t-49 -2t-63.5 -2t-100 -1zM449 246q0 -57 8 -98.5t30.5 -67t65.5 -37.5t115 -12q121 0 209 50t144 136t84 203t28 250q0 127 -29 247.5t-89.5 214t-155.5 150.5t-226 57q-29 0 -58.5 -1t-70.5 -5q-25 -4 -40 -18.5t-15 -50.5v-533h350v-39h-350v-446z " />
<glyph unicode="&#xd1;" horiz-adv-x="1511" d="M66 1350v20q37 0 63.5 -1t48 -2t38.5 -2t40 -1q20 0 34.5 1l29 2t31 2t40.5 1l852 -1048v895q0 43 -13 68.5t-36 39.5t-52.5 19.5t-62.5 5.5v20q41 0 65.5 -1t43 -2t35 -2t39.5 -1t39 1t34.5 2t44 2t66.5 1v-20q-33 0 -62.5 -5.5t-52 -19.5t-36 -39.5t-13.5 -68.5v-1242 h-37l-946 1186v-1007q0 -43 13.5 -69t36 -40t52 -19.5t62.5 -5.5v-20q-41 0 -66.5 1t-44 2t-35 2t-38.5 1q-23 0 -39.5 -1t-35 -2t-43 -2t-65.5 -1v20q33 0 62.5 5.5t52 19.5t36 40t13.5 69v1052l-45 58q-29 37 -62.5 61.5t-86.5 24.5zM508 1561q14 88 66.5 140t123.5 52 q37 0 79 -16.5t84 -35t81 -34.5t70 -16t56.5 21.5t35.5 70.5h22q-12 -86 -57 -142.5t-117 -56.5q-41 0 -85 16.5t-85 35t-79 35t-68 16.5q-41 0 -67.5 -25t-33.5 -61h-26z" />
<glyph unicode="&#xd2;" horiz-adv-x="1642" d="M92 686q0 156 55.5 286t152.5 224t231 146.5t292 52.5q147 0 278.5 -50.5t232 -143.5t158.5 -225t58 -294q0 -166 -58 -297t-157.5 -223t-231.5 -141.5t-280 -49.5q-158 0 -291 50.5t-231 143.5t-153.5 225t-55.5 296zM328 682q0 -139 31.5 -262t94 -214t155.5 -144.5 t214 -53.5q115 0 206 52.5t154.5 142.5t97.5 214t34 265q0 139 -34 263t-97.5 216t-154.5 145.5t-206 53.5q-121 0 -214 -56.5t-155.5 -150.5t-94 -217t-31.5 -254zM475 1763q0 35 20.5 54.5t51.5 19.5q23 0 40 -10t35 -27l340 -315h-32l-336 166q-20 10 -42 20t-38.5 22.5 t-27.5 29t-11 40.5z" />
<glyph unicode="&#xd3;" horiz-adv-x="1642" d="M92 686q0 156 55.5 286t152.5 224t231 146.5t292 52.5q147 0 278.5 -50.5t232 -143.5t158.5 -225t58 -294q0 -166 -58 -297t-157.5 -223t-231.5 -141.5t-280 -49.5q-158 0 -291 50.5t-231 143.5t-153.5 225t-55.5 296zM328 682q0 -139 31.5 -262t94 -214t155.5 -144.5 t214 -53.5q115 0 206 52.5t154.5 142.5t97.5 214t34 265q0 139 -34 263t-97.5 216t-154.5 145.5t-206 53.5q-121 0 -214 -56.5t-155.5 -150.5t-94 -217t-31.5 -254zM680 1485l340 315q10 8 18 16.5t27 14.5q18 6 41 6q29 0 45 -22.5t16 -51.5q0 -25 -11 -41t-27.5 -28.5 t-38 -22.5t-42.5 -20l-335 -166h-33z" />
<glyph unicode="&#xd4;" horiz-adv-x="1642" d="M92 686q0 156 55.5 286t152.5 224t231 146.5t292 52.5q147 0 278.5 -50.5t232 -143.5t158.5 -225t58 -294q0 -166 -58 -297t-157.5 -223t-231.5 -141.5t-280 -49.5q-158 0 -291 50.5t-231 143.5t-153.5 225t-55.5 296zM328 682q0 -139 31.5 -262t94 -214t155.5 -144.5 t214 -53.5q115 0 206 52.5t154.5 142.5t97.5 214t34 265q0 139 -34 263t-97.5 216t-154.5 145.5t-206 53.5q-121 0 -214 -56.5t-155.5 -150.5t-94 -217t-31.5 -254zM469 1485l307 332h90l305 -332h-57l-293 192l-295 -192h-57z" />
<glyph unicode="&#xd5;" horiz-adv-x="1642" d="M92 686q0 156 55.5 286t152.5 224t231 146.5t292 52.5q147 0 278.5 -50.5t232 -143.5t158.5 -225t58 -294q0 -166 -58 -297t-157.5 -223t-231.5 -141.5t-280 -49.5q-158 0 -291 50.5t-231 143.5t-153.5 225t-55.5 296zM328 682q0 -139 31.5 -262t94 -214t155.5 -144.5 t214 -53.5q115 0 206 52.5t154.5 142.5t97.5 214t34 265q0 139 -34 263t-97.5 216t-154.5 145.5t-206 53.5q-121 0 -214 -56.5t-155.5 -150.5t-94 -217t-31.5 -254zM512 1561q14 88 66.5 140t123.5 52q37 0 79 -16.5t84 -35t81 -34.5t70 -16t56.5 21.5t35.5 70.5h22 q-12 -86 -57 -142.5t-117 -56.5q-41 0 -85 16.5t-85 35t-79 35t-68 16.5q-41 0 -67.5 -25t-33.5 -61h-26z" />
<glyph unicode="&#xd6;" horiz-adv-x="1642" d="M92 686q0 156 55.5 286t152.5 224t231 146.5t292 52.5q147 0 278.5 -50.5t232 -143.5t158.5 -225t58 -294q0 -166 -58 -297t-157.5 -223t-231.5 -141.5t-280 -49.5q-158 0 -291 50.5t-231 143.5t-153.5 225t-55.5 296zM328 682q0 -139 31.5 -262t94 -214t155.5 -144.5 t214 -53.5q115 0 206 52.5t154.5 142.5t97.5 214t34 265q0 139 -34 263t-97.5 216t-154.5 145.5t-206 53.5q-121 0 -214 -56.5t-155.5 -150.5t-94 -217t-31.5 -254zM526 1651q0 39 29.5 75.5t83.5 36.5q29 0 50 -11t34.5 -28.5t20.5 -37t7 -35.5q0 -41 -31.5 -77t-80.5 -36 q-45 0 -79 34t-34 79zM886 1651q0 39 30 75.5t83 36.5q29 0 50.5 -11t34.5 -28.5t20.5 -37t7.5 -35.5q0 -41 -32 -77t-81 -36q-45 0 -79 34t-34 79z" />
<glyph unicode="&#xd7;" horiz-adv-x="1032" d="M133 391l326 326l-322 323l53 56l324 -324l330 326l55 -58l-328 -325l326 -328l-53 -55l-328 327l-326 -323z" />
<glyph unicode="&#xd8;" horiz-adv-x="1642" d="M92 686q0 156 55.5 286t152.5 224t231 146.5t292 52.5q211 0 383 -101l148 217h57l-166 -241q137 -92 221 -240.5t84 -347.5q0 -166 -58 -297t-157.5 -223t-231.5 -141.5t-280 -49.5q-225 0 -397 101l-168 -244h-57l184 268q-135 92 -214 241.5t-79 348.5zM328 682 q0 -141 31.5 -264t97.5 -215l690 1005q-61 72 -143.5 112t-180.5 40q-121 0 -214 -56.5t-155.5 -150.5t-94 -217t-31.5 -254zM487 162q61 -72 145.5 -113t190.5 -41q115 0 206 52.5t154.5 142.5t97.5 214t34 265q0 143 -36 269t-101 218z" />
<glyph unicode="&#xd9;" horiz-adv-x="1464" d="M55 1350v20q61 0 98 -1t64 -3t49.5 -3t57.5 -1q33 0 56 1t50 3t63.5 3t98.5 1v-20q-33 0 -62.5 -5.5t-52 -19.5t-36 -39.5t-13.5 -68.5v-773q0 -92 20.5 -167.5t67.5 -130t122 -83t185 -28.5q188 0 293 105.5t105 303.5v773q0 43 -13.5 68.5t-36 39.5t-52 19.5t-62.5 5.5 v20q41 0 65.5 -1t43 -2t35 -2t38.5 -1q23 0 39 1t34.5 2t44 2t66.5 1v-20q-33 0 -62.5 -5.5t-52 -19.5t-35.5 -39.5t-13 -68.5v-748q0 -137 -35 -230.5t-98.5 -151.5t-153.5 -84t-201 -26q-98 0 -197.5 16.5t-178.5 67t-128 145.5t-49 255v756q0 43 -13 68.5t-36 39.5 t-52.5 19.5t-62.5 5.5zM404 1763q0 35 20.5 54.5t51.5 19.5q23 0 40 -10t35 -27l340 -315h-32l-336 166q-20 10 -42 20t-38.5 22.5t-27.5 29t-11 40.5z" />
<glyph unicode="&#xda;" horiz-adv-x="1464" d="M55 1350v20q61 0 98 -1t64 -3t49.5 -3t57.5 -1q33 0 56 1t50 3t63.5 3t98.5 1v-20q-33 0 -62.5 -5.5t-52 -19.5t-36 -39.5t-13.5 -68.5v-773q0 -92 20.5 -167.5t67.5 -130t122 -83t185 -28.5q188 0 293 105.5t105 303.5v773q0 43 -13.5 68.5t-36 39.5t-52 19.5t-62.5 5.5 v20q41 0 65.5 -1t43 -2t35 -2t38.5 -1q23 0 39 1t34.5 2t44 2t66.5 1v-20q-33 0 -62.5 -5.5t-52 -19.5t-35.5 -39.5t-13 -68.5v-748q0 -137 -35 -230.5t-98.5 -151.5t-153.5 -84t-201 -26q-98 0 -197.5 16.5t-178.5 67t-128 145.5t-49 255v756q0 43 -13 68.5t-36 39.5 t-52.5 19.5t-62.5 5.5zM660 1485l340 315q10 8 18 16.5t27 14.5q18 6 41 6q29 0 45 -22.5t16 -51.5q0 -25 -11 -41t-27.5 -28.5t-38 -22.5t-42.5 -20l-335 -166h-33z" />
<glyph unicode="&#xdb;" horiz-adv-x="1464" d="M55 1350v20q61 0 98 -1t64 -3t49.5 -3t57.5 -1q33 0 56 1t50 3t63.5 3t98.5 1v-20q-33 0 -62.5 -5.5t-52 -19.5t-36 -39.5t-13.5 -68.5v-773q0 -92 20.5 -167.5t67.5 -130t122 -83t185 -28.5q188 0 293 105.5t105 303.5v773q0 43 -13.5 68.5t-36 39.5t-52 19.5t-62.5 5.5 v20q41 0 65.5 -1t43 -2t35 -2t38.5 -1q23 0 39 1t34.5 2t44 2t66.5 1v-20q-33 0 -62.5 -5.5t-52 -19.5t-35.5 -39.5t-13 -68.5v-748q0 -137 -35 -230.5t-98.5 -151.5t-153.5 -84t-201 -26q-98 0 -197.5 16.5t-178.5 67t-128 145.5t-49 255v756q0 43 -13 68.5t-36 39.5 t-52.5 19.5t-62.5 5.5zM438 1485l307 332h90l305 -332h-57l-293 192l-295 -192h-57z" />
<glyph unicode="&#xdc;" horiz-adv-x="1464" d="M55 1350v20q61 0 98 -1t64 -3t49.5 -3t57.5 -1q33 0 56 1t50 3t63.5 3t98.5 1v-20q-33 0 -62.5 -5.5t-52 -19.5t-36 -39.5t-13.5 -68.5v-773q0 -92 20.5 -167.5t67.5 -130t122 -83t185 -28.5q188 0 293 105.5t105 303.5v773q0 43 -13.5 68.5t-36 39.5t-52 19.5t-62.5 5.5 v20q41 0 65.5 -1t43 -2t35 -2t38.5 -1q23 0 39 1t34.5 2t44 2t66.5 1v-20q-33 0 -62.5 -5.5t-52 -19.5t-35.5 -39.5t-13 -68.5v-748q0 -137 -35 -230.5t-98.5 -151.5t-153.5 -84t-201 -26q-98 0 -197.5 16.5t-178.5 67t-128 145.5t-49 255v756q0 43 -13 68.5t-36 39.5 t-52.5 19.5t-62.5 5.5zM485 1651q0 39 29.5 75.5t83.5 36.5q29 0 50 -11t34.5 -28.5t20.5 -37t7 -35.5q0 -41 -31.5 -77t-80.5 -36q-45 0 -79 34t-34 79zM845 1651q0 39 30 75.5t83 36.5q29 0 50.5 -11t34.5 -28.5t20.5 -37t7.5 -35.5q0 -41 -32 -77t-81 -36q-45 0 -79 34 t-34 79z" />
<glyph unicode="&#xdd;" horiz-adv-x="1306" d="M10 1350v20q51 0 84 -1t59.5 -3t51 -3t59.5 -1q33 0 56.5 1t50 3t60.5 3t89 1v-20q-18 0 -39.5 -2t-39 -10.5t-30 -23t-12.5 -40.5q0 -27 11.5 -51.5t27.5 -53.5l289 -526l313 522q29 51 29 88q0 59 -35 78t-88 19v20q43 0 69.5 -1t45 -2t32 -2t31.5 -1t32.5 1t32 2t42 2 t65.5 1v-20q-39 0 -65.5 -11.5t-48 -31t-39 -46t-35.5 -59.5l-352 -588v-460q0 -43 13 -69t35.5 -40t52.5 -19.5t63 -5.5v-20q-61 0 -98.5 1t-64 3t-50 3t-56.5 1q-35 0 -57.5 -1t-49 -3t-63.5 -3t-98 -1v20q33 0 62.5 5.5t52 19.5t36 40t13.5 69v430l-338 598 q-27 47 -45.5 77.5t-39 50t-47 28t-67.5 12.5zM586 1485l340 315q10 8 18 16.5t27 14.5q18 6 41 6q29 0 45 -22.5t16 -51.5q0 -25 -11 -41t-27.5 -28.5t-38 -22.5t-42.5 -20l-335 -166h-33z" />
<glyph unicode="&#xde;" horiz-adv-x="1144" d="M76 0v20q33 0 62.5 5.5t52 19.5t36 40t13.5 69v1069q0 43 -13.5 68.5t-36 40t-52 19.5t-62.5 5v20q61 0 98 -1t63.5 -3t49 -3t57.5 -1q33 0 56.5 1t50 3t63.5 3t98 1v-20q-33 0 -62.5 -5t-52 -19.5t-35.5 -40t-13 -68.5v-193q74 6 137 6q244 0 359.5 -97t115.5 -257 q0 -74 -30 -137.5t-91 -109.5t-156.5 -71.5t-226.5 -25.5q-27 0 -53.5 1t-54.5 3v-188q0 -43 13 -69t35.5 -40t52.5 -19.5t62 -5.5v-20q-61 0 -98 1t-63.5 3t-50 3t-56.5 1q-35 0 -57.5 -1t-49 -3t-63.5 -3t-98 -1zM449 377q20 -4 38.5 -4h34.5q88 0 147.5 24.5t94.5 67.5 t49 101.5t14 125.5q0 66 -15 122t-49 98t-88 65.5t-134 23.5q-43 0 -92 -6v-618z" />
<glyph unicode="&#xdf;" horiz-adv-x="1112" d="M66 0v20q31 0 55 3.5t42.5 15.5t29 34.5t10.5 63.5v844q0 147 39 233t96 132.5t122.5 59.5t119.5 13q70 0 135 -21.5t115.5 -62.5t80 -102.5t29.5 -140.5q0 -119 -74.5 -205t-203.5 -107v-2q70 -6 137 -35.5t120.5 -82t86 -126t32.5 -167.5q0 -90 -27.5 -163t-73.5 -124 t-109.5 -79t-133.5 -28q-29 0 -63.5 6.5t-64 20.5t-49 37.5t-19.5 58.5q0 23 17 43.5t46 20.5q33 0 51.5 -20.5t26.5 -45t10 -46t6 -25.5q14 -14 43 -15q45 0 73 35t43 88t20.5 116.5t5.5 121.5q0 125 -22.5 201.5t-62.5 118.5t-93.5 55.5t-114.5 13.5h-21v33h19q49 0 87 11 t64.5 41.5t41 86t14.5 143.5q0 166 -49.5 239.5t-135.5 73.5q-72 0 -110.5 -35.5t-57 -89t-21.5 -118t-3 -121.5v-885q0 -80 25.5 -98.5t70.5 -18.5v-20q-35 0 -57.5 1t-41 2t-38 2t-45.5 1q-29 0 -48.5 -1t-42 -2t-53 -2t-79.5 -1z" />
<glyph unicode="&#xe0;" horiz-adv-x="974" d="M86 184q0 68 37 112t76 69q61 41 139 72.5t156 66.5q23 10 47 21.5t43.5 21.5t32 19t12.5 20v86q0 20 -3 55t-19.5 68.5t-54.5 58.5t-106 25q-20 0 -55 -4.5t-68.5 -13.5t-58 -24.5t-24.5 -35.5q0 -4 7 -23.5t7 -50.5q0 -25 -18.5 -48.5t-53.5 -23.5q-25 0 -49 20.5 t-24 67.5t38.5 79t94 51.5t116 27.5t103.5 8q70 0 132 -13t108.5 -46t73 -88t26.5 -139v-449q0 -16 2 -36.5t8 -39t19.5 -32t37.5 -13.5q25 0 41.5 17.5t26.5 33.5l18 -8q-4 -10 -17 -29.5t-34.5 -39t-51.5 -35t-67 -15.5q-59 0 -100 39t-51 95q-72 -59 -149.5 -96.5 t-174.5 -37.5q-45 0 -85 12.5t-70.5 38t-49 64.5t-18.5 92zM145 1348q0 31 19.5 49t46.5 18q23 0 39 -11t32 -30l281 -319h-29l-293 186q-35 23 -65.5 44.5t-30.5 62.5zM264 211q0 -31 8.5 -59.5t24.5 -52t40.5 -38t59.5 -14.5q72 0 133.5 32t98.5 71v382 q-59 -31 -129 -60.5t-121 -63.5q-59 -41 -87 -92.5t-28 -104.5z" />
<glyph unicode="&#xe1;" horiz-adv-x="974" d="M86 184q0 68 37 112t76 69q61 41 139 72.5t156 66.5q23 10 47 21.5t43.5 21.5t32 19t12.5 20v86q0 20 -3 55t-19.5 68.5t-54.5 58.5t-106 25q-20 0 -55 -4.5t-68.5 -13.5t-58 -24.5t-24.5 -35.5q0 -4 7 -23.5t7 -50.5q0 -25 -18.5 -48.5t-53.5 -23.5q-25 0 -49 20.5 t-24 67.5t38.5 79t94 51.5t116 27.5t103.5 8q70 0 132 -13t108.5 -46t73 -88t26.5 -139v-449q0 -16 2 -36.5t8 -39t19.5 -32t37.5 -13.5q25 0 41.5 17.5t26.5 33.5l18 -8q-4 -10 -17 -29.5t-34.5 -39t-51.5 -35t-67 -15.5q-59 0 -100 39t-51 95q-72 -59 -149.5 -96.5 t-174.5 -37.5q-45 0 -85 12.5t-70.5 38t-49 64.5t-18.5 92zM264 211q0 -31 8.5 -59.5t24.5 -52t40.5 -38t59.5 -14.5q72 0 133.5 32t98.5 71v382q-59 -31 -129 -60.5t-121 -63.5q-59 -41 -87 -92.5t-28 -104.5zM319 1055l281 319q18 20 35.5 30.5t39.5 10.5q27 0 44.5 -18.5 t17.5 -40.5q0 -41 -27.5 -64.5t-56.5 -42.5l-305 -194h-29z" />
<glyph unicode="&#xe2;" horiz-adv-x="974" d="M86 184q0 68 37 112t76 69q61 41 139 72.5t156 66.5q23 10 47 21.5t43.5 21.5t32 19t12.5 20v86q0 20 -3 55t-19.5 68.5t-54.5 58.5t-106 25q-20 0 -55 -4.5t-68.5 -13.5t-58 -24.5t-24.5 -35.5q0 -4 7 -23.5t7 -50.5q0 -25 -18.5 -48.5t-53.5 -23.5q-25 0 -49 20.5 t-24 67.5t38.5 79t94 51.5t116 27.5t103.5 8q70 0 132 -13t108.5 -46t73 -88t26.5 -139v-449q0 -16 2 -36.5t8 -39t19.5 -32t37.5 -13.5q25 0 41.5 17.5t26.5 33.5l18 -8q-4 -10 -17 -29.5t-34.5 -39t-51.5 -35t-67 -15.5q-59 0 -100 39t-51 95q-72 -59 -149.5 -96.5 t-174.5 -37.5q-45 0 -85 12.5t-70.5 38t-49 64.5t-18.5 92zM178 1061l264 346h70l215 -346h-29l-221 207l-272 -207h-27zM264 211q0 -31 8.5 -59.5t24.5 -52t40.5 -38t59.5 -14.5q72 0 133.5 32t98.5 71v382q-59 -31 -129 -60.5t-121 -63.5q-59 -41 -87 -92.5t-28 -104.5z " />
<glyph unicode="&#xe3;" horiz-adv-x="974" d="M86 184q0 68 37 112t76 69q61 41 139 72.5t156 66.5q23 10 47 21.5t43.5 21.5t32 19t12.5 20v86q0 20 -3 55t-19.5 68.5t-54.5 58.5t-106 25q-20 0 -55 -4.5t-68.5 -13.5t-58 -24.5t-24.5 -35.5q0 -4 7 -23.5t7 -50.5q0 -25 -18.5 -48.5t-53.5 -23.5q-25 0 -49 20.5 t-24 67.5t38.5 79t94 51.5t116 27.5t103.5 8q70 0 132 -13t108.5 -46t73 -88t26.5 -139v-449q0 -16 2 -36.5t8 -39t19.5 -32t37.5 -13.5q25 0 41.5 17.5t26.5 33.5l18 -8q-4 -10 -17 -29.5t-34.5 -39t-51.5 -35t-67 -15.5q-59 0 -100 39t-51 95q-72 -59 -149.5 -96.5 t-174.5 -37.5q-45 0 -85 12.5t-70.5 38t-49 64.5t-18.5 92zM189 1137q18 86 63 135t109 49q39 0 76 -15.5t73.5 -35t71.5 -34.5t68 -15q23 0 45 19.5t35 72.5h22q-14 -86 -55 -138.5t-107 -52.5q-41 0 -78.5 16.5t-73.5 36t-70 36t-64 16.5q-41 0 -61.5 -26.5t-31.5 -63.5 h-22zM264 211q0 -31 8.5 -59.5t24.5 -52t40.5 -38t59.5 -14.5q72 0 133.5 32t98.5 71v382q-59 -31 -129 -60.5t-121 -63.5q-59 -41 -87 -92.5t-28 -104.5z" />
<glyph unicode="&#xe4;" horiz-adv-x="974" d="M86 184q0 68 37 112t76 69q61 41 139 72.5t156 66.5q23 10 47 21.5t43.5 21.5t32 19t12.5 20v86q0 20 -3 55t-19.5 68.5t-54.5 58.5t-106 25q-20 0 -55 -4.5t-68.5 -13.5t-58 -24.5t-24.5 -35.5q0 -4 7 -23.5t7 -50.5q0 -25 -18.5 -48.5t-53.5 -23.5q-25 0 -49 20.5 t-24 67.5t38.5 79t94 51.5t116 27.5t103.5 8q70 0 132 -13t108.5 -46t73 -88t26.5 -139v-449q0 -16 2 -36.5t8 -39t19.5 -32t37.5 -13.5q25 0 41.5 17.5t26.5 33.5l18 -8q-4 -10 -17 -29.5t-34.5 -39t-51.5 -35t-67 -15.5q-59 0 -100 39t-51 95q-72 -59 -149.5 -96.5 t-174.5 -37.5q-45 0 -85 12.5t-70.5 38t-49 64.5t-18.5 92zM207 1219q0 47 30.5 77.5t77.5 30.5t78 -30.5t31 -77.5t-30.5 -78t-78.5 -31q-47 0 -77.5 31t-30.5 78zM264 211q0 -31 8.5 -59.5t24.5 -52t40.5 -38t59.5 -14.5q72 0 133.5 32t98.5 71v382q-59 -31 -129 -60.5 t-121 -63.5q-59 -41 -87 -92.5t-28 -104.5zM543 1219q0 47 30.5 77.5t77.5 30.5t78 -30.5t31 -77.5t-31 -78t-78 -31t-77.5 31t-30.5 78z" />
<glyph unicode="&#xe5;" horiz-adv-x="974" d="M86 184q0 68 37 112t76 69q61 41 139 72.5t156 66.5q23 10 47 21.5t43.5 21.5t32 19t12.5 20v86q0 20 -3 55t-19.5 68.5t-54.5 58.5t-106 25q-20 0 -55 -4.5t-68.5 -13.5t-58 -24.5t-24.5 -35.5q0 -4 7 -23.5t7 -50.5q0 -25 -18.5 -48.5t-53.5 -23.5q-25 0 -49 20.5 t-24 67.5t38.5 79t94 51.5t116 27.5t103.5 8q70 0 132 -13t108.5 -46t73 -88t26.5 -139v-449q0 -16 2 -36.5t8 -39t19.5 -32t37.5 -13.5q25 0 41.5 17.5t26.5 33.5l18 -8q-4 -10 -17 -29.5t-34.5 -39t-51.5 -35t-67 -15.5q-59 0 -100 39t-51 95q-72 -59 -149.5 -96.5 t-174.5 -37.5q-45 0 -85 12.5t-70.5 38t-49 64.5t-18.5 92zM264 211q0 -31 8.5 -59.5t24.5 -52t40.5 -38t59.5 -14.5q72 0 133.5 32t98.5 71v382q-59 -31 -129 -60.5t-121 -63.5q-59 -41 -87 -92.5t-28 -104.5zM273 1219q0 39 15.5 73.5t41 61t60 41t73.5 14.5t74 -15.5 t60.5 -41t41 -60.5t15.5 -73q0 -39 -14.5 -74t-41 -60.5t-61.5 -41t-74 -15.5t-73.5 15.5t-60 41t-41 60.5t-15.5 74zM340 1217q0 -51 35 -86t86 -35q53 0 89 34.5t36 86.5q0 53 -35.5 88.5t-89.5 35.5q-51 0 -86 -35.5t-35 -88.5z" />
<glyph unicode="&#xe6;" horiz-adv-x="1486" d="M86 162q0 72 37 119t76 71q61 41 128.5 70t153.5 63q55 23 91 40.5t38 29.5q4 23 5 49.5t1 52.5v29.5t-2 26.5q-8 86 -51 126t-129 40q-16 0 -48 -4.5t-62.5 -13.5t-53 -24.5t-22.5 -35.5q0 -4 7 -21.5t7 -52.5q0 -25 -18.5 -48.5t-53.5 -23.5q-25 0 -49 20.5t-24 67.5 t35.5 79t87 51.5t109 27.5t100.5 8q92 0 163.5 -26.5t116.5 -96.5q53 51 135 86t172 35q72 0 138.5 -23.5t116.5 -66.5t83 -102.5t37 -128.5v-8q0 -8 -2 -16.5t-10 -8.5h-613q-6 -41 -6 -92v-28.5t2 -31.5q16 -184 95 -277t215 -93q51 0 93 13t75.5 32.5t58 42t41.5 41.5 l14 -15q-23 -27 -52.5 -56.5t-69.5 -54t-91 -41t-117 -16.5q-111 0 -210 48.5t-160 138.5q-31 -35 -71 -69t-88 -60.5t-102.5 -42t-113.5 -15.5q-102 0 -157.5 53.5t-55.5 131.5zM270 229q0 -70 39 -118t109 -48q45 0 84 14.5t69.5 35t52 43.5t33.5 39q-51 102 -51 251v32 t2 32q-59 -31 -115.5 -53.5t-107.5 -55.5q-59 -39 -87 -78.5t-28 -93.5zM791 584h405q33 0 33 32q0 39 -11.5 85.5t-35 85t-60.5 64.5t-90 26q-68 0 -110.5 -30t-69.5 -75t-40 -95t-21 -93z" />
<glyph unicode="&#xe7;" horiz-adv-x="894" d="M82 426q0 106 39 195.5t105.5 153t154.5 99t186 35.5q23 0 65 -5t83 -19.5t71.5 -42t30.5 -72.5q0 -29 -16.5 -52.5t-55.5 -23.5q-29 0 -49 22.5t-20 59.5q0 16 3 31.5t3 17.5q0 12 -13.5 22.5t-32 17.5t-37.5 10.5t-32 3.5q-82 0 -137 -39t-89 -102.5t-48 -141.5 t-14 -156q0 -90 19 -165.5t56 -131t90.5 -86t120.5 -30.5q100 0 165 39.5t99 80.5l15 -14q-43 -55 -92.5 -87t-95.5 -47t-83.5 -19.5t-54.5 -4.5h-12l-12 -34h12q90 0 131 -39t41 -86q0 -18 -8 -40t-26.5 -38.5t-50.5 -27.5t-77 -11q-63 0 -110.5 26.5t-47.5 69.5 q0 16 9.5 29.5t31.5 13.5q31 0 45 -37q8 -23 8.5 -38t4.5 -19q18 -18 57 -18q41 0 58.5 29.5t17.5 60.5q0 33 -20.5 63.5t-82.5 30.5h-16t-29 -4l27 71q-78 6 -147.5 38t-123 88.5t-85 137.5t-31.5 185z" />
<glyph unicode="&#xe8;" horiz-adv-x="993" d="M82 428q0 98 35 184t97 151.5t146 103.5t183 38q72 0 138.5 -23.5t116.5 -66.5t82.5 -102.5t37.5 -128.5q0 -12 -1.5 -22.5t-11.5 -10.5h-620q-4 -29 -6.5 -60.5t-2.5 -60.5q0 -197 86.5 -301t223.5 -104q55 0 98 13t77 32.5t58.5 42t42.5 41.5l15 -15 q-23 -27 -54.5 -55.5t-74.5 -53t-96.5 -40t-119.5 -15.5q-86 0 -166.5 30t-143 87.5t-101.5 142t-39 193.5zM151 1348q0 31 19.5 49t46.5 18q23 0 39 -11t32 -30l281 -319h-29l-293 186q-35 23 -65.5 44.5t-30.5 62.5zM289 582h420q33 0 32 32q0 39 -9 85t-31.5 85 t-61.5 64.5t-100 25.5q-70 0 -115 -29.5t-72.5 -74.5t-41 -95t-21.5 -93z" />
<glyph unicode="&#xe9;" horiz-adv-x="993" d="M82 428q0 98 35 184t97 151.5t146 103.5t183 38q72 0 138.5 -23.5t116.5 -66.5t82.5 -102.5t37.5 -128.5q0 -12 -1.5 -22.5t-11.5 -10.5h-620q-4 -29 -6.5 -60.5t-2.5 -60.5q0 -197 86.5 -301t223.5 -104q55 0 98 13t77 32.5t58.5 42t42.5 41.5l15 -15 q-23 -27 -54.5 -55.5t-74.5 -53t-96.5 -40t-119.5 -15.5q-86 0 -166.5 30t-143 87.5t-101.5 142t-39 193.5zM289 582h420q33 0 32 32q0 39 -9 85t-31.5 85t-61.5 64.5t-100 25.5q-70 0 -115 -29.5t-72.5 -74.5t-41 -95t-21.5 -93zM418 1055l281 319q18 20 35.5 30.5 t39.5 10.5q27 0 44.5 -18.5t17.5 -40.5q0 -41 -27.5 -64.5t-56.5 -42.5l-305 -194h-29z" />
<glyph unicode="&#xea;" horiz-adv-x="993" d="M82 428q0 98 35 184t97 151.5t146 103.5t183 38q72 0 138.5 -23.5t116.5 -66.5t82.5 -102.5t37.5 -128.5q0 -12 -1.5 -22.5t-11.5 -10.5h-620q-4 -29 -6.5 -60.5t-2.5 -60.5q0 -197 86.5 -301t223.5 -104q55 0 98 13t77 32.5t58.5 42t42.5 41.5l15 -15 q-23 -27 -54.5 -55.5t-74.5 -53t-96.5 -40t-119.5 -15.5q-86 0 -166.5 30t-143 87.5t-101.5 142t-39 193.5zM219 1061l264 346h70l215 -346h-29l-221 207l-272 -207h-27zM289 582h420q33 0 32 32q0 39 -9 85t-31.5 85t-61.5 64.5t-100 25.5q-70 0 -115 -29.5t-72.5 -74.5 t-41 -95t-21.5 -93z" />
<glyph unicode="&#xeb;" horiz-adv-x="993" d="M82 428q0 98 35 184t97 151.5t146 103.5t183 38q72 0 138.5 -23.5t116.5 -66.5t82.5 -102.5t37.5 -128.5q0 -12 -1.5 -22.5t-11.5 -10.5h-620q-4 -29 -6.5 -60.5t-2.5 -60.5q0 -197 86.5 -301t223.5 -104q55 0 98 13t77 32.5t58.5 42t42.5 41.5l15 -15 q-23 -27 -54.5 -55.5t-74.5 -53t-96.5 -40t-119.5 -15.5q-86 0 -166.5 30t-143 87.5t-101.5 142t-39 193.5zM223 1219q0 47 30.5 77.5t77.5 30.5t78 -30.5t31 -77.5t-30.5 -78t-78.5 -31q-47 0 -77.5 31t-30.5 78zM289 582h420q33 0 32 32q0 39 -9 85t-31.5 85t-61.5 64.5 t-100 25.5q-70 0 -115 -29.5t-72.5 -74.5t-41 -95t-21.5 -93zM559 1219q0 47 30.5 77.5t77.5 30.5t78 -30.5t31 -77.5t-31 -78t-78 -31t-77.5 31t-30.5 78z" />
<glyph unicode="&#xec;" d="M-51 1348q0 31 19.5 49t46.5 18q23 0 39 -11t32 -30l281 -319h-29l-293 186q-35 23 -65.5 44.5t-30.5 62.5zM66 827v21q115 18 187.5 37.5t137.5 42.5v-750q0 -41 2 -68.5t16.5 -47t42 -29.5t80.5 -13v-20q-49 0 -79.5 1t-54 2t-44 2t-49.5 1q-31 0 -52.5 -1t-45 -2 t-54 -2t-79.5 -1v20q51 2 79.5 12.5t43 30t16.5 47t2 68.5v502q0 76 -9 115t-63 39h-16z" />
<glyph unicode="&#xed;" d="M66 827v21q115 18 187.5 37.5t137.5 42.5v-750q0 -41 2 -68.5t16.5 -47t42 -29.5t80.5 -13v-20q-49 0 -79.5 1t-54 2t-44 2t-49.5 1q-31 0 -52.5 -1t-45 -2t-54 -2t-79.5 -1v20q51 2 79.5 12.5t43 30t16.5 47t2 68.5v502q0 76 -9 115t-63 39h-16zM135 1055l281 319 q18 20 35.5 30.5t39.5 10.5q27 0 44.5 -18.5t17.5 -40.5q0 -41 -27.5 -64.5t-56.5 -42.5l-305 -194h-29z" />
<glyph unicode="&#xee;" d="M-4 1061l264 346h70l215 -346h-29l-221 207l-272 -207h-27zM66 827v21q115 18 187.5 37.5t137.5 42.5v-750q0 -41 2 -68.5t16.5 -47t42 -29.5t80.5 -13v-20q-49 0 -79.5 1t-54 2t-44 2t-49.5 1q-31 0 -52.5 -1t-45 -2t-54 -2t-79.5 -1v20q51 2 79.5 12.5t43 30t16.5 47 t2 68.5v502q0 76 -9 115t-63 39h-16z" />
<glyph unicode="&#xef;" d="M0 1219q0 47 30.5 77.5t77.5 30.5t78 -30.5t31 -77.5t-30.5 -78t-78.5 -31q-47 0 -77.5 31t-30.5 78zM66 827v21q115 18 187.5 37.5t137.5 42.5v-750q0 -41 2 -68.5t16.5 -47t42 -29.5t80.5 -13v-20q-49 0 -79.5 1t-54 2t-44 2t-49.5 1q-31 0 -52.5 -1t-45 -2t-54 -2 t-79.5 -1v20q51 2 79.5 12.5t43 30t16.5 47t2 68.5v502q0 76 -9 115t-63 39h-16zM336 1219q0 47 30.5 77.5t77.5 30.5t78 -30.5t31 -77.5t-31 -78t-78 -31t-77.5 31t-30.5 78z" />
<glyph unicode="&#xf0;" horiz-adv-x="1114" d="M82 444q0 88 28.5 172t85 151t141.5 107.5t198 40.5q41 0 87 -5t105 -31q-41 162 -127 315l-207 -100l-18 36l205 99q-70 111 -156 196l14 15q47 -39 96.5 -85t98.5 -100l203 99l16 -37l-190 -94q74 -82 139 -176.5t115.5 -195.5t80 -206.5t29.5 -210.5q0 -129 -45 -217 t-115.5 -142.5t-156.5 -78t-166 -23.5q-98 0 -182.5 34t-146.5 95.5t-97 148.5t-35 193zM276 463q0 -143 28 -232.5t68 -138.5t85 -66.5t82 -17.5q47 0 98 16.5t94 63.5t71.5 131t28.5 217q0 143 -29.5 230.5t-72.5 134.5t-92 63.5t-88 16.5q-43 0 -91 -18.5t-88 -64.5 t-67 -128t-27 -207z" />
<glyph unicode="&#xf1;" horiz-adv-x="1157" d="M66 0v20q31 0 55 3.5t42.5 15.5t29 34.5t10.5 63.5v568q0 39 -10.5 62.5t-29 35.5t-43 15t-54.5 3v21q72 8 138 27.5t132 48.5q10 -51 17 -105.5t9 -89.5q47 86 134.5 136t197.5 50q100 0 157.5 -36.5t86.5 -90t35 -112t6 -103.5v-430q0 -41 10 -63.5t28.5 -34.5 t43 -15.5t55.5 -3.5v-20q-49 0 -79.5 1t-53 2t-43 2t-47.5 1q-29 0 -48.5 -1t-42 -2t-53 -2t-79.5 -1v20q31 0 55.5 3.5t42.5 15.5t28.5 34.5t10.5 63.5v438q0 25 -3 72t-19.5 95.5t-51.5 83t-98 34.5q-47 0 -94 -21.5t-84 -58.5t-59.5 -84t-22.5 -98v-461q0 -41 10 -63.5 t28.5 -34.5t43 -15.5t55.5 -3.5v-20q-49 0 -80 1t-53.5 2t-43 2t-46.5 1q-29 0 -48.5 -1t-42 -2t-53 -2t-79.5 -1zM328 1137q18 86 63 135t109 49q39 0 76 -15.5t73.5 -35t71.5 -34.5t68 -15q23 0 45 19.5t35 72.5h22q-14 -86 -55 -138.5t-107 -52.5q-41 0 -78.5 16.5 t-73.5 36t-70 36t-64 16.5q-41 0 -61.5 -26.5t-31.5 -63.5h-22z" />
<glyph unicode="&#xf2;" horiz-adv-x="1114" d="M82 442q0 106 37 192.5t101.5 148t152.5 94t188 32.5q96 0 181 -32.5t149.5 -94t102.5 -148t38 -190.5q0 -102 -35.5 -188t-98 -148.5t-149.5 -98.5t-188 -36q-102 0 -189 36t-151.5 98.5t-101.5 148.5t-37 186zM276 442q0 -86 16.5 -165.5t52.5 -140t89 -97.5t127 -37 t127 37t86 98.5t48.5 141t15.5 165.5t-16.5 165t-50.5 138.5t-86 95.5t-124 36q-74 0 -127 -36t-88 -95.5t-52.5 -139.5t-17.5 -166zM352 1348q0 31 19.5 49t46.5 18q23 0 39 -11t32 -30l281 -319h-29l-293 186q-35 23 -65.5 44.5t-30.5 62.5z" />
<glyph unicode="&#xf3;" horiz-adv-x="1114" d="M82 442q0 106 37 192.5t101.5 148t152.5 94t188 32.5q96 0 181 -32.5t149.5 -94t102.5 -148t38 -190.5q0 -102 -35.5 -188t-98 -148.5t-149.5 -98.5t-188 -36q-102 0 -189 36t-151.5 98.5t-101.5 148.5t-37 186zM276 442q0 -86 16.5 -165.5t52.5 -140t89 -97.5t127 -37 t127 37t86 98.5t48.5 141t15.5 165.5t-16.5 165t-50.5 138.5t-86 95.5t-124 36q-74 0 -127 -36t-88 -95.5t-52.5 -139.5t-17.5 -166zM352 1055l281 319q18 20 35.5 30.5t39.5 10.5q27 0 44.5 -18.5t17.5 -40.5q0 -41 -27.5 -64.5t-56.5 -42.5l-305 -194h-29z" />
<glyph unicode="&#xf4;" horiz-adv-x="1114" d="M82 442q0 106 37 192.5t101.5 148t152.5 94t188 32.5q96 0 181 -32.5t149.5 -94t102.5 -148t38 -190.5q0 -102 -35.5 -188t-98 -148.5t-149.5 -98.5t-188 -36q-102 0 -189 36t-151.5 98.5t-101.5 148.5t-37 186zM276 442q0 -86 16.5 -165.5t52.5 -140t89 -97.5t127 -37 t127 37t86 98.5t48.5 141t15.5 165.5t-16.5 165t-50.5 138.5t-86 95.5t-124 36q-74 0 -127 -36t-88 -95.5t-52.5 -139.5t-17.5 -166zM280 1061l264 346h70l215 -346h-29l-221 207l-272 -207h-27z" />
<glyph unicode="&#xf5;" horiz-adv-x="1114" d="M82 442q0 106 37 192.5t101.5 148t152.5 94t188 32.5q96 0 181 -32.5t149.5 -94t102.5 -148t38 -190.5q0 -102 -35.5 -188t-98 -148.5t-149.5 -98.5t-188 -36q-102 0 -189 36t-151.5 98.5t-101.5 148.5t-37 186zM275 1137q18 86 63 135t109 49q39 0 76 -15.5t73.5 -35 t71.5 -34.5t68 -15q23 0 45 19.5t35 72.5h22q-14 -86 -55 -138.5t-107 -52.5q-41 0 -78.5 16.5t-73.5 36t-70 36t-64 16.5q-41 0 -61.5 -26.5t-31.5 -63.5h-22zM276 442q0 -86 16.5 -165.5t52.5 -140t89 -97.5t127 -37t127 37t86 98.5t48.5 141t15.5 165.5t-16.5 165 t-50.5 138.5t-86 95.5t-124 36q-74 0 -127 -36t-88 -95.5t-52.5 -139.5t-17.5 -166z" />
<glyph unicode="&#xf6;" horiz-adv-x="1114" d="M82 442q0 106 37 192.5t101.5 148t152.5 94t188 32.5q96 0 181 -32.5t149.5 -94t102.5 -148t38 -190.5q0 -102 -35.5 -188t-98 -148.5t-149.5 -98.5t-188 -36q-102 0 -189 36t-151.5 98.5t-101.5 148.5t-37 186zM276 442q0 -86 16.5 -165.5t52.5 -140t89 -97.5t127 -37 t127 37t86 98.5t48.5 141t15.5 165.5t-16.5 165t-50.5 138.5t-86 95.5t-124 36q-74 0 -127 -36t-88 -95.5t-52.5 -139.5t-17.5 -166zM281 1219q0 47 30.5 77.5t77.5 30.5t78 -30.5t31 -77.5t-30.5 -78t-78.5 -31q-47 0 -77.5 31t-30.5 78zM617 1219q0 47 30.5 77.5 t77.5 30.5t78 -30.5t31 -77.5t-31 -78t-78 -31t-77.5 31t-30.5 78z" />
<glyph unicode="&#xf7;" horiz-adv-x="1175" d="M123 678v76h930v-76h-930zM498 358q0 37 26.5 64t63.5 27t63.5 -27t26.5 -64t-26.5 -63.5t-63.5 -26.5t-63.5 27t-26.5 63zM498 1071q0 37 26.5 63.5t63.5 26.5t63.5 -26.5t26.5 -63.5t-26.5 -63.5t-63.5 -26.5t-63.5 26.5t-26.5 63.5z" />
<glyph unicode="&#xf8;" horiz-adv-x="1105" d="M80 442q0 106 37 192.5t101.5 148t152.5 94t188 32.5q66 0 127.5 -16t114.5 -45l129 186h49l-143 -209q88 -59 141 -156.5t53 -224.5q0 -102 -36 -188t-98 -148.5t-149.5 -98.5t-187.5 -36q-143 0 -258 70l-143 -211h-54l160 234q-86 63 -135 160.5t-49 215.5zM274 442 q0 -78 13.5 -150.5t42.5 -131.5l422 614q-35 49 -82.5 77t-110.5 28q-74 0 -127 -36t-88 -95.5t-52.5 -139.5t-17.5 -166zM352 119q35 -53 86 -85t121 -32q74 0 127 37t86 98.5t48.5 141t15.5 165.5q0 82 -15.5 157t-46.5 134z" />
<glyph unicode="&#xf9;" horiz-adv-x="1159" d="M41 866v21q43 0 68.5 -1t46 -2t39 -2t47.5 -1q14 0 24 1t21.5 2t26 2t36.5 1v-594q0 -27 3 -72t20.5 -89t52.5 -75.5t100 -31.5q49 0 97.5 17t85 49t59.5 75t23 96v488q0 39 -10.5 62.5t-29 35.5t-43 15t-55.5 3v21q43 0 71 -1t47.5 -2t35.5 -2t39 -1q18 0 29.5 1t23.5 2 t26.5 2t37.5 1v-643q0 -100 36.5 -135t108.5 -35v-21q-27 -6 -62.5 -13t-73.5 -16.5t-75 -19.5t-68 -18q-20 55 -34 137q-49 -76 -137.5 -112t-186.5 -36q-127 0 -210 71t-83 226v478q0 39 -10 62.5t-28.5 35.5t-43 15t-55.5 3zM178 1348q0 31 19.5 49t46.5 18q23 0 39 -11 t32 -30l281 -319h-29l-293 186q-35 23 -65.5 44.5t-30.5 62.5z" />
<glyph unicode="&#xfa;" horiz-adv-x="1159" d="M41 866v21q43 0 68.5 -1t46 -2t39 -2t47.5 -1q14 0 24 1t21.5 2t26 2t36.5 1v-594q0 -27 3 -72t20.5 -89t52.5 -75.5t100 -31.5q49 0 97.5 17t85 49t59.5 75t23 96v488q0 39 -10.5 62.5t-29 35.5t-43 15t-55.5 3v21q43 0 71 -1t47.5 -2t35.5 -2t39 -1q18 0 29.5 1t23.5 2 t26.5 2t37.5 1v-643q0 -100 36.5 -135t108.5 -35v-21q-27 -6 -62.5 -13t-73.5 -16.5t-75 -19.5t-68 -18q-20 55 -34 137q-49 -76 -137.5 -112t-186.5 -36q-127 0 -210 71t-83 226v478q0 39 -10 62.5t-28.5 35.5t-43 15t-55.5 3zM434 1055l281 319q18 20 35.5 30.5t39.5 10.5 q27 0 44.5 -18.5t17.5 -40.5q0 -41 -27.5 -64.5t-56.5 -42.5l-305 -194h-29z" />
<glyph unicode="&#xfb;" horiz-adv-x="1159" d="M41 866v21q43 0 68.5 -1t46 -2t39 -2t47.5 -1q14 0 24 1t21.5 2t26 2t36.5 1v-594q0 -27 3 -72t20.5 -89t52.5 -75.5t100 -31.5q49 0 97.5 17t85 49t59.5 75t23 96v488q0 39 -10.5 62.5t-29 35.5t-43 15t-55.5 3v21q43 0 71 -1t47.5 -2t35.5 -2t39 -1q18 0 29.5 1t23.5 2 t26.5 2t37.5 1v-643q0 -100 36.5 -135t108.5 -35v-21q-27 -6 -62.5 -13t-73.5 -16.5t-75 -19.5t-68 -18q-20 55 -34 137q-49 -76 -137.5 -112t-186.5 -36q-127 0 -210 71t-83 226v478q0 39 -10 62.5t-28.5 35.5t-43 15t-55.5 3zM272 1061l264 346h70l215 -346h-29l-221 207 l-272 -207h-27z" />
<glyph unicode="&#xfc;" horiz-adv-x="1159" d="M41 866v21q43 0 68.5 -1t46 -2t39 -2t47.5 -1q14 0 24 1t21.5 2t26 2t36.5 1v-594q0 -27 3 -72t20.5 -89t52.5 -75.5t100 -31.5q49 0 97.5 17t85 49t59.5 75t23 96v488q0 39 -10.5 62.5t-29 35.5t-43 15t-55.5 3v21q43 0 71 -1t47.5 -2t35.5 -2t39 -1q18 0 29.5 1t23.5 2 t26.5 2t37.5 1v-643q0 -100 36.5 -135t108.5 -35v-21q-27 -6 -62.5 -13t-73.5 -16.5t-75 -19.5t-68 -18q-20 55 -34 137q-49 -76 -137.5 -112t-186.5 -36q-127 0 -210 71t-83 226v478q0 39 -10 62.5t-28.5 35.5t-43 15t-55.5 3zM279 1219q0 47 30.5 77.5t77.5 30.5t78 -30.5 t31 -77.5t-30.5 -78t-78.5 -31q-47 0 -77.5 31t-30.5 78zM615 1219q0 47 30.5 77.5t77.5 30.5t78 -30.5t31 -77.5t-31 -78t-78 -31t-77.5 31t-30.5 78z" />
<glyph unicode="&#xfd;" horiz-adv-x="905" d="M-14 866v21q45 0 72.5 -1t48 -2t39 -2t42.5 -1q27 0 46.5 1t41 2t49 2t70.5 1v-21q-37 0 -69.5 -13t-32.5 -65q0 -23 10 -49l217 -522l217 504q14 35 15 59q0 47 -29 65.5t-74 20.5v21q31 0 49.5 -1t32.5 -2t27.5 -2t29.5 -1t28.5 1t26 2t31 2t46.5 1v-21q-55 -2 -85 -40 t-61 -109l-457 -1057q-10 -25 -27.5 -62.5t-39 -71.5t-47 -58.5t-49.5 -24.5q-23 0 -38.5 12.5t-15.5 38.5q0 33 29 54.5t74 33.5q10 4 36.5 26.5t53.5 82.5l139 321l-289 674q-16 39 -31.5 73t-33 57.5t-40 36.5t-52.5 13zM383 1055l281 319q18 20 35.5 30.5t39.5 10.5 q27 0 44.5 -18.5t17.5 -40.5q0 -41 -27.5 -64.5t-56.5 -42.5l-305 -194h-29z" />
<glyph unicode="&#xfe;" horiz-adv-x="1140" d="M66 -514q31 0 55 3t42.5 15.5t29 35t10.5 63.5v1593q0 39 -10.5 62.5t-29 36t-43 15.5t-54.5 3v20q76 6 150.5 25.5t150.5 46.5q4 -16 5 -37.5t1 -42.5v-547q43 53 108.5 92t151.5 39q102 0 182 -39t134.5 -104.5t82 -154.5t27.5 -189q0 -86 -27.5 -166t-82 -142.5 t-131.5 -100.5t-175 -38t-163.5 40t-104.5 94v-506q0 -41 10 -63.5t28.5 -35t43 -15.5t55.5 -3v-21q-49 0 -80 1.5t-53.5 2.5t-43 2t-46.5 1q-29 0 -48.5 -1t-42 -2t-53 -2.5t-79.5 -1.5v21zM375 272q0 -49 17.5 -97t50 -85t79.5 -59.5t105 -22.5q66 0 111.5 38t74.5 98.5 t41 137t12 154.5q0 70 -9 146.5t-36.5 141t-78 106.5t-132.5 42q-45 0 -88 -19t-75.5 -56t-52 -88.5t-19.5 -114.5v-322z" />
<glyph unicode="&#xff;" horiz-adv-x="905" d="M-14 866v21q45 0 72.5 -1t48 -2t39 -2t42.5 -1q27 0 46.5 1t41 2t49 2t70.5 1v-21q-37 0 -69.5 -13t-32.5 -65q0 -23 10 -49l217 -522l217 504q14 35 15 59q0 47 -29 65.5t-74 20.5v21q31 0 49.5 -1t32.5 -2t27.5 -2t29.5 -1t28.5 1t26 2t31 2t46.5 1v-21q-55 -2 -85 -40 t-61 -109l-457 -1057q-10 -25 -27.5 -62.5t-39 -71.5t-47 -58.5t-49.5 -24.5q-23 0 -38.5 12.5t-15.5 38.5q0 33 29 54.5t74 33.5q10 4 36.5 26.5t53.5 82.5l139 321l-289 674q-16 39 -31.5 73t-33 57.5t-40 36.5t-52.5 13zM209 1219q0 47 30.5 77.5t77.5 30.5t78 -30.5 t31 -77.5t-30.5 -78t-78.5 -31q-47 0 -77.5 31t-30.5 78zM545 1219q0 47 30.5 77.5t77.5 30.5t78 -30.5t31 -77.5t-31 -78t-78 -31t-77.5 31t-30.5 78z" />
<glyph unicode="&#x152;" horiz-adv-x="2011" d="M92 680q0 156 58.5 284t160 220t238.5 142t295 50q86 0 158.5 -6t162.5 -6q70 0 169.5 6t221.5 6q80 0 144.5 -2t146.5 -4l13 -266h-21q-4 37 -12 84t-31 80q-18 27 -42.5 42t-58.5 22t-81 8t-111 1q-18 0 -42.5 -1t-51.5 -2t-49.5 -3t-36.5 -4q-47 -6 -47 -55v-555h139 q35 0 69 6t58 29q29 27 41 64.5t12 76.5h21q0 -41 -1 -70.5t-2 -52t-2 -39t-1 -33.5q0 -16 1 -30.5t2 -34t2 -49t1 -74.5h-21q0 41 -12 79t-41 62q-25 23 -58.5 27t-68.5 4h-139v-438q0 -74 16.5 -118t52 -65.5t93 -27.5t141.5 -6q76 0 126 3t84 12t55.5 23.5t39.5 36.5 q20 23 34.5 66t18.5 115h23l-16 -287q-92 -2 -164 -3t-156 -1q-86 0 -153.5 1t-121 3t-93 3t-72.5 1q-80 0 -166 -13.5t-199 -13.5q-350 0 -538.5 179.5t-188.5 523.5zM324 676q0 -109 21.5 -225.5t77.5 -214t154.5 -160t249.5 -62.5q76 0 122 19.5t72 56.5t35 92.5t9 126.5 v701q0 51 -2 98t-12.5 86t-33 69.5t-63.5 53.5q-47 24 -110 24q-121 0 -217.5 -49t-164 -137t-103 -210t-35.5 -269z" />
<glyph unicode="&#x153;" horiz-adv-x="1693" d="M82 442q0 100 37 185.5t100.5 148t150.5 98t187 35.5q109 0 194 -40t152 -113q59 72 146.5 113.5t193.5 41.5q72 0 138.5 -23.5t116.5 -66.5t83 -102.5t37 -128.5q0 -14 -2 -23.5t-14 -9.5h-603q-2 -16 -4 -49t-2 -62q0 -76 15.5 -150.5t52.5 -135t97.5 -97t148.5 -36.5 q59 0 103 15t76 36.5t51 43t32 36.5l16 -13q-23 -27 -50.5 -55.5t-66 -53t-90 -39.5t-116.5 -15q-111 0 -203 38.5t-158 112.5q-66 -70 -144.5 -115t-199.5 -45q-102 0 -188 36t-150.5 99.5t-100.5 149.5t-36 184zM276 442q0 -92 16.5 -172t52.5 -138t89 -92t127 -34 q70 0 119 34t80 92t44 139t13 173t-15.5 172t-47 138.5t-80.5 91.5t-117 33q-70 0 -122 -33t-88 -91.5t-53.5 -138t-17.5 -174.5zM1004 588h399q33 0 33 33q0 39 -10.5 85t-34 84.5t-60.5 64.5t-92 26q-66 0 -107.5 -29t-68.5 -72t-40 -95t-19 -97z" />
<glyph unicode="&#x178;" horiz-adv-x="1306" d="M10 1350v20q51 0 84 -1t59.5 -3t51 -3t59.5 -1q33 0 56.5 1t50 3t60.5 3t89 1v-20q-18 0 -39.5 -2t-39 -10.5t-30 -23t-12.5 -40.5q0 -27 11.5 -51.5t27.5 -53.5l289 -526l313 522q29 51 29 88q0 59 -35 78t-88 19v20q43 0 69.5 -1t45 -2t32 -2t31.5 -1t32.5 1t32 2t42 2 t65.5 1v-20q-39 0 -65.5 -11.5t-48 -31t-39 -46t-35.5 -59.5l-352 -588v-460q0 -43 13 -69t35.5 -40t52.5 -19.5t63 -5.5v-20q-61 0 -98.5 1t-64 3t-50 3t-56.5 1q-35 0 -57.5 -1t-49 -3t-63.5 -3t-98 -1v20q33 0 62.5 5.5t52 19.5t36 40t13.5 69v430l-338 598 q-27 47 -45.5 77.5t-39 50t-47 28t-67.5 12.5zM422 1651q0 39 29.5 75.5t83.5 36.5q29 0 50 -11t34.5 -28.5t20.5 -37t7 -35.5q0 -41 -31.5 -77t-80.5 -36q-45 0 -79 34t-34 79zM782 1651q0 39 30 75.5t83 36.5q29 0 50.5 -11t34.5 -28.5t20.5 -37t7.5 -35.5q0 -41 -32 -77 t-81 -36q-45 0 -79 34t-34 79z" />
<glyph unicode="&#x2c6;" horiz-adv-x="835" d="M133 1061l264 346h70l215 -346h-29l-221 207l-272 -207h-27z" />
<glyph unicode="&#x2dc;" horiz-adv-x="808" d="M123 1137q18 86 63 135t109 49q39 0 76 -15.5t73.5 -35t71.5 -34.5t68 -15q23 0 45 19.5t35 72.5h22q-14 -86 -55 -138.5t-107 -52.5q-41 0 -78.5 16.5t-73.5 36t-70 36t-64 16.5q-41 0 -61.5 -26.5t-31.5 -63.5h-22z" />
<glyph unicode="&#x2000;" horiz-adv-x="918" />
<glyph unicode="&#x2001;" horiz-adv-x="1837" />
<glyph unicode="&#x2002;" horiz-adv-x="918" />
<glyph unicode="&#x2003;" horiz-adv-x="1837" />
<glyph unicode="&#x2004;" horiz-adv-x="612" />
<glyph unicode="&#x2005;" horiz-adv-x="459" />
<glyph unicode="&#x2006;" horiz-adv-x="306" />
<glyph unicode="&#x2007;" horiz-adv-x="306" />
<glyph unicode="&#x2008;" horiz-adv-x="229" />
<glyph unicode="&#x2009;" horiz-adv-x="367" />
<glyph unicode="&#x200a;" horiz-adv-x="102" />
<glyph unicode="&#x2010;" d="M82 483v101h424v-101h-424z" />
<glyph unicode="&#x2011;" d="M82 483v101h424v-101h-424z" />
<glyph unicode="&#x2012;" d="M82 483v101h424v-101h-424z" />
<glyph unicode="&#x2013;" horiz-adv-x="1355" d="M205 498v67h946v-67h-946z" />
<glyph unicode="&#x2014;" horiz-adv-x="1517" d="M90 498v67h1337v-67h-1337z" />
<glyph unicode="&#x2018;" horiz-adv-x="546" d="M143 1036q0 98 61.5 176t151.5 131l15 -18q-47 -35 -75 -67.5t-43 -64.5t-20.5 -59.5t-5.5 -50.5v-24q0 -8 2 -12q23 16 38.5 21t29.5 5q43 0 74.5 -27.5t31.5 -74.5q0 -53 -33.5 -85t-76.5 -32q-27 0 -53.5 11.5t-48 34t-35 56t-13.5 80.5z" />
<glyph unicode="&#x2019;" horiz-adv-x="546" d="M143 1227q0 53 34 84.5t77 31.5q27 0 53.5 -11t48 -33.5t34.5 -56.5t13 -81q0 -98 -61 -176t-152 -131l-14 18q47 33 75 67t43 65.5t20 59.5t5 50q0 4 -1 11.5t-1 13.5v12q-23 -16 -38 -21.5t-29 -5.5q-43 0 -75 28t-32 75z" />
<glyph unicode="&#x201a;" horiz-adv-x="546" d="M143 82q0 53 34 85t77 32q27 0 53.5 -11.5t48 -34t34.5 -56.5t13 -81q0 -98 -61 -176t-152 -131l-14 19q47 33 75 66.5t43 64t20 58.5t5 50v19.5t-2 19.5q-23 -16 -38 -21t-29 -5q-43 0 -75 27.5t-32 74.5z" />
<glyph unicode="&#x201c;" horiz-adv-x="901" d="M143 1036q0 98 61.5 176t151.5 131l15 -18q-47 -35 -75 -67.5t-43 -64.5t-20.5 -59.5t-5.5 -50.5v-24q0 -8 2 -12q23 16 38.5 21t29.5 5q43 0 74.5 -27.5t31.5 -74.5q0 -53 -33.5 -85t-76.5 -32q-27 0 -53.5 11.5t-48 34t-35 56t-13.5 80.5zM498 1036q0 98 61.5 176 t151.5 131l14 -18q-47 -35 -74.5 -67.5t-43 -64.5t-20.5 -59.5t-5 -50.5v-24q0 -8 2 -12q23 16 38 21t29 5q43 0 75 -27.5t32 -74.5q0 -53 -34 -85t-77 -32q-27 0 -53.5 11.5t-48 34t-34.5 56t-13 80.5z" />
<glyph unicode="&#x201d;" horiz-adv-x="901" d="M143 1225q0 53 34 84.5t77 31.5q27 0 53.5 -11t48 -33.5t34.5 -56.5t13 -81q0 -98 -61 -176t-152 -131l-14 18q47 33 75 67t43 65.5t20 59.5t5 50q0 4 -1 11t-1 14v12q-23 -16 -38 -21.5t-29 -5.5q-43 0 -75 28t-32 75zM498 1225q0 53 33.5 84.5t76.5 31.5q27 0 53.5 -11 t48 -33.5t35 -56.5t13.5 -81q0 -98 -61.5 -176t-151.5 -131l-15 18q47 33 75 67t43.5 65.5t20.5 59.5t5 50q0 4 -1 11t-1 14v12q-23 -16 -38.5 -21.5t-29.5 -5.5q-43 0 -74.5 28t-31.5 75z" />
<glyph unicode="&#x201e;" horiz-adv-x="901" d="M143 82q0 53 34 85t77 32q27 0 53.5 -11.5t48 -34t34.5 -56.5t13 -81q0 -98 -61 -176t-152 -131l-14 19q47 33 75 66.5t43 65t20 59.5t5 50q0 4 -1 11.5t-1 13.5v12q-23 -16 -38 -21t-29 -5q-43 0 -75 27.5t-32 74.5zM498 82q0 53 33.5 85t76.5 32q27 0 53.5 -11.5 t48 -34t35 -56.5t13.5 -81q0 -98 -61.5 -176t-151.5 -131l-15 19q47 33 75 66.5t43.5 65t20.5 59.5t5 50q0 4 -1 11.5t-1 13.5v12q-23 -16 -38.5 -21t-29.5 -5q-43 0 -74.5 27.5t-31.5 74.5z" />
<glyph unicode="&#x2022;" horiz-adv-x="782" d="M205 586q0 76 54 130t130 54q39 0 74 -14.5t60.5 -40t40 -59t14.5 -70.5t-14.5 -71t-40 -59.5t-60.5 -40t-74 -14.5q-76 0 -130 54.5t-54 130.5z" />
<glyph unicode="&#x2026;" horiz-adv-x="1597" d="M143 98q0 57 39 88t80 31q47 0 83 -36t36 -83q0 -41 -31 -79.5t-88 -38.5q-51 0 -85 33.5t-34 84.5zM680 98q0 47 36 83t83 36q41 0 80 -30.5t39 -88.5q0 -51 -34 -84.5t-85 -33.5q-57 0 -88 38.5t-31 79.5zM1217 98q0 47 35.5 83t82.5 36q41 0 80 -30.5t39 -88.5 q0 -51 -34 -84.5t-85 -33.5q-57 0 -87.5 38.5t-30.5 79.5z" />
<glyph unicode="&#x202f;" horiz-adv-x="367" />
<glyph unicode="&#x2039;" horiz-adv-x="618" d="M123 461q23 18 66.5 51t94 73t99.5 84t82 81q4 4 9 11t9 7q12 0 13 -18q0 -18 -17.5 -47t-42 -60t-50.5 -60.5t-42 -50.5l-59 -71l59 -72q16 -20 42 -50t50.5 -60.5t42 -59.5t17.5 -47t-13 -18q-4 0 -9 7t-9 11q-33 39 -83 83t-100.5 84t-94.5 72.5t-64 49.5z" />
<glyph unicode="&#x203a;" horiz-adv-x="618" d="M123 172q0 18 17.5 47t42 59.5t50 60.5t41.5 50l58 74l-58 69q-16 20 -41.5 50t-50 61t-42 59.5t-17.5 47.5q0 18 12 18q4 0 9.5 -7t9.5 -11q33 -37 82 -81t99 -84t94 -73t67 -51q-20 -16 -64.5 -49t-94.5 -73t-100.5 -84t-82.5 -83q-4 -4 -9.5 -11t-9.5 -7q-12 0 -12 18 z" />
<glyph unicode="&#x205f;" horiz-adv-x="459" />
<glyph unicode="&#x20ac;" horiz-adv-x="1220" d="M76 739l16 39h86q16 127 65.5 239.5t126 196.5t181 132.5t233.5 48.5q86 0 158 -38t125 -89l37 73h20q0 -55 -1 -100t-1 -76q0 -39 3 -82t3 -96h-26q-4 80 -28.5 147.5t-65.5 119t-97.5 80t-124.5 28.5q-78 0 -144.5 -43t-115.5 -121t-79.5 -184.5t-38.5 -235.5h577 l-16 -39h-566q-2 -16 -2 -31.5v-31.5v-32.5t2 -33.5h510l-18 -39h-492q2 -84 21.5 -183t60.5 -184t107.5 -141.5t165.5 -56.5q78 0 142.5 32t111.5 90t74.5 139t33.5 179h27q0 -76 -3 -124t-3 -86q0 -20 1 -48t2 -57t2 -57.5t1 -50.5h-21l-49 92q-12 -12 -39.5 -37 t-68.5 -48.5t-95.5 -42t-119.5 -18.5q-248 0 -397.5 155t-178.5 447h-96l16 39h76q-2 10 -2 21v47v43q0 8 2 18h-98z" />
<glyph unicode="&#x2122;" horiz-adv-x="2037" d="M61 1157v209q16 0 42 1t42 1q78 0 151 -4t148 -4q72 0 140.5 4t140.5 4h50.5t49.5 -2v-209h-20q-10 80 -46 130t-126 50q-16 0 -37 -1t-31 -3q-35 -4 -41 -24.5t-6 -71.5v-565q0 -59 27.5 -83t99.5 -24v-22q-47 0 -74.5 1t-47 1t-37 1t-44.5 1q-25 0 -43 -1t-37.5 -1 t-48 -1t-73.5 -1v22q72 0 100.5 23.5t28.5 83.5v567q0 51 -7.5 70.5t-44.5 23.5q-12 2 -28.5 3t-24.5 1q-49 0 -81.5 -10t-53 -31.5t-31 -56.5t-16.5 -82h-21zM905 1346v22q37 0 60.5 -1t40 -1t31 -1t32.5 -1q35 0 55.5 2t67.5 2l252 -610l250 610q25 0 41 -1t29.5 -1 t25.5 -1t31 -1q18 0 30.5 1t27.5 1t37.5 1t59.5 1v-22q-29 0 -51 -2.5t-39.5 -12.5t-27 -30.5t-9.5 -59.5v-565q0 -70 31 -89.5t96 -21.5v-22q-47 0 -73.5 1t-46 1t-37 1t-41.5 1q-27 0 -45.5 -1t-38 -1t-48 -1t-73.5 -1v22q68 0 98.5 20.5t30.5 90.5v622l-313 -755h-15 l-307 745v-612q0 -68 31.5 -88.5t95.5 -22.5v-22q-31 0 -50.5 1t-32.5 1t-25.5 1t-30.5 1t-30.5 -1t-28 -1t-36 -1t-53.5 -1v22q66 0 96.5 21.5t30.5 89.5v565q0 68 -29.5 86.5t-99.5 18.5z" />
<glyph unicode="&#x25fc;" horiz-adv-x="890" d="M0 0v891h891v-891h-891z" />
</font>
</defs>
</svg>
